  0
SECTION
  2
HEADER
  9
$ACADVER
  1
AC1015
  9
$ACADMAINTVER
 70
     6
  9
$DWGCODEPAGE
  3
ANSI_1252
  9
$INSBASE
 10
0.0
 20
0.0
 30
0.0
  9
$EXTMIN
 10
-630.6306306306309
 20
0.0
 30
0.0
  9
$EXTMAX
 10
0.0
 20
891.8918918918921
 30
0.0
  9
$LIMMIN
 10
0.0
 20
0.0
  9
$LIMMAX
 10
12.0
 20
9.0
  9
$ORTHOMODE
 70
     0
  9
$REGENMODE
 70
     1
  9
$FILLMODE
 70
     1
  9
$QTEXTMODE
 70
     0
  9
$MIRRTEXT
 70
     1
  9
$LTSCALE
 40
1.0
  9
$ATTMODE
 70
     1
  9
$TEXTSIZE
 40
0.2
  9
$TRACEWID
 40
0.05
  9
$TEXTSTYLE
  7
Standard
  9
$CLAYER
  8
0
  9
$CELTYPE
  6
ByLayer
  9
$CECOLOR
 62
   256
  9
$CELTSCALE
 40
1.0
  9
$DISPSILH
 70
     0
  9
$DIMSCALE
 40
1.0
  9
$DIMASZ
 40
0.18
  9
$DIMEXO
 40
0.0625
  9
$DIMDLI
 40
0.38
  9
$DIMRND
 40
0.0
  9
$DIMDLE
 40
0.0
  9
$DIMEXE
 40
0.18
  9
$DIMTP
 40
0.0
  9
$DIMTM
 40
0.0
  9
$DIMTXT
 40
0.18
  9
$DIMCEN
 40
0.09
  9
$DIMTSZ
 40
0.0
  9
$DIMTOL
 70
     0
  9
$DIMLIM
 70
     0
  9
$DIMTIH
 70
     1
  9
$DIMTOH
 70
     1
  9
$DIMSE1
 70
     0
  9
$DIMSE2
 70
     0
  9
$DIMTAD
 70
     0
  9
$DIMZIN
 70
     0
  9
$DIMBLK
  1

  9
$DIMASO
 70
     1
  9
$DIMSHO
 70
     1
  9
$DIMPOST
  1

  9
$DIMAPOST
  1

  9
$DIMALT
 70
     0
  9
$DIMALTD
 70
     2
  9
$DIMALTF
 40
25.4
  9
$DIMLFAC
 40
1.0
  9
$DIMTOFL
 70
     0
  9
$DIMTVP
 40
0.0
  9
$DIMTIX
 70
     0
  9
$DIMSOXD
 70
     0
  9
$DIMSAH
 70
     0
  9
$DIMBLK1
  1

  9
$DIMBLK2
  1

  9
$DIMSTYLE
  2
Standard
  9
$DIMCLRD
 70
     0
  9
$DIMCLRE
 70
     0
  9
$DIMCLRT
 70
     0
  9
$DIMTFAC
 40
1.0
  9
$DIMGAP
 40
0.09
  9
$DIMJUST
 70
     0
  9
$DIMSD1
 70
     0
  9
$DIMSD2
 70
     0
  9
$DIMTOLJ
 70
     1
  9
$DIMTZIN
 70
     0
  9
$DIMALTZ
 70
     0
  9
$DIMALTTZ
 70
     0
  9
$DIMUPT
 70
     0
  9
$DIMDEC
 70
     4
  9
$DIMTDEC
 70
     4
  9
$DIMALTU
 70
     2
  9
$DIMALTTD
 70
     2
  9
$DIMTXSTY
  7
Standard
  9
$DIMAUNIT
 70
     0
  9
$DIMADEC
 70
     0
  9
$DIMALTRND
 40
0.0
  9
$DIMAZIN
 70
     0
  9
$DIMDSEP
 70
    46
  9
$DIMATFIT
 70
     3
  9
$DIMFRAC
 70
     0
  9
$DIMLDRBLK
  1

  9
$DIMLUNIT
 70
     2
  9
$DIMLWD
 70
    -2
  9
$DIMLWE
 70
    -2
  9
$DIMTMOVE
 70
     0
  9
$LUNITS
 70
     2
  9
$LUPREC
 70
     4
  9
$SKETCHINC
 40
0.1
  9
$FILLETRAD
 40
0.5
  9
$AUNITS
 70
     0
  9
$AUPREC
 70
     0
  9
$MENU
  1
.
  9
$ELEVATION
 40
0.0
  9
$PELEVATION
 40
0.0
  9
$THICKNESS
 40
0.0
  9
$LIMCHECK
 70
     0
  9
$CHAMFERA
 40
0.0
  9
$CHAMFERB
 40
0.0
  9
$CHAMFERC
 40
0.0
  9
$CHAMFERD
 40
0.0
  9
$SKPOLY
 70
     0
  9
$TDCREATE
 40
2457515.394302789
  9
$TDUCREATE
 40
2457515.310969456
  9
$TDUPDATE
 40
2457515.394302963
  9
$TDUUPDATE
 40
2457515.31096963
  9
$TDINDWG
 40
0.0000000116
  9
$TDUSRTIMER
 40
0.0000000116
  9
$USRTIMER
 70
     1
  9
$ANGBASE
 50
0.0
  9
$ANGDIR
 70
     0
  9
$PDMODE
 70
     0
  9
$PDSIZE
 40
0.0
  9
$PLINEWID
 40
0.0
  9
$SPLFRAME
 70
     0
  9
$SPLINETYPE
 70
     6
  9
$SPLINESEGS
 70
     8
  9
$HANDSEED
  5
225
  9
$SURFTAB1
 70
     6
  9
$SURFTAB2
 70
     6
  9
$SURFTYPE
 70
     6
  9
$SURFU
 70
     6
  9
$SURFV
 70
     6
  9
$UCSBASE
  2

  9
$UCSNAME
  2

  9
$UCSORG
 10
0.0
 20
0.0
 30
0.0
  9
$UCSXDIR
 10
1.0
 20
0.0
 30
0.0
  9
$UCSYDIR
 10
0.0
 20
1.0
 30
0.0
  9
$UCSORTHOREF
  2

  9
$UCSORTHOVIEW
 70
     0
  9
$UCSORGTOP
 10
0.0
 20
0.0
 30
0.0
  9
$UCSORGBOTTOM
 10
0.0
 20
0.0
 30
0.0
  9
$UCSORGLEFT
 10
0.0
 20
0.0
 30
0.0
  9
$UCSORGRIGHT
 10
0.0
 20
0.0
 30
0.0
  9
$UCSORGFRONT
 10
0.0
 20
0.0
 30
0.0
  9
$UCSORGBACK
 10
0.0
 20
0.0
 30
0.0
  9
$PUCSBASE
  2

  9
$PUCSNAME
  2

  9
$PUCSORG
 10
0.0
 20
0.0
 30
0.0
  9
$PUCSXDIR
 10
1.0
 20
0.0
 30
0.0
  9
$PUCSYDIR
 10
0.0
 20
1.0
 30
0.0
  9
$PUCSORTHOREF
  2

  9
$PUCSORTHOVIEW
 70
     0
  9
$PUCSORGTOP
 10
0.0
 20
0.0
 30
0.0
  9
$PUCSORGBOTTOM
 10
0.0
 20
0.0
 30
0.0
  9
$PUCSORGLEFT
 10
0.0
 20
0.0
 30
0.0
  9
$PUCSORGRIGHT
 10
0.0
 20
0.0
 30
0.0
  9
$PUCSORGFRONT
 10
0.0
 20
0.0
 30
0.0
  9
$PUCSORGBACK
 10
0.0
 20
0.0
 30
0.0
  9
$USERI1
 70
     0
  9
$USERI2
 70
     0
  9
$USERI3
 70
     0
  9
$USERI4
 70
     0
  9
$USERI5
 70
     0
  9
$USERR1
 40
19.0
  9
$USERR2
 40
0.0
  9
$USERR3
 40
0.0
  9
$USERR4
 40
0.0
  9
$USERR5
 40
0.0
  9
$WORLDVIEW
 70
     1
  9
$SHADEDGE
 70
     3
  9
$SHADEDIF
 70
    70
  9
$TILEMODE
 70
     1
  9
$MAXACTVP
 70
    64
  9
$PINSBASE
 10
0.0
 20
0.0
 30
0.0
  9
$PLIMCHECK
 70
     0
  9
$PEXTMIN
 10
1.00000000000000E+20
 20
1.00000000000000E+20
 30
1.00000000000000E+20
  9
$PEXTMAX
 10
-1.00000000000000E+20
 20
-1.00000000000000E+20
 30
-1.00000000000000E+20
  9
$PLIMMIN
 10
0.0
 20
0.0
  9
$PLIMMAX
 10
12.0
 20
9.0
  9
$UNITMODE
 70
     0
  9
$VISRETAIN
 70
     1
  9
$PLINEGEN
 70
     0
  9
$PSLTSCALE
 70
     1
  9
$TREEDEPTH
 70
  3020
  9
$CMLSTYLE
  2
Standard
  9
$CMLJUST
 70
     0
  9
$CMLSCALE
 40
1.0
  9
$PROXYGRAPHICS
 70
     1
  9
$MEASUREMENT
 70
     1
  9
$CELWEIGHT
370
    -1
  9
$ENDCAPS
280
     0
  9
$JOINSTYLE
280
     0
  9
$LWDISPLAY
290
     0
  9
$INSUNITS
 70
     4
  9
$HYPERLINKBASE
  1

  9
$STYLESHEET
  1

  9
$XEDIT
290
     1
  9
$CEPSNTYPE
380
     0
  9
$PSTYLEMODE
290
     1
  9
$FINGERPRINTGUID
  2
{4576ECAA-1A8F-4C47-8F55-A1812418E8F1}
  9
$VERSIONGUID
  2
{FAEB1C32-E019-11D5-929B-00C0DF256EC4}
  9
$EXTNAMES
290
     1
  9
$PSVPSCALE
 40
0.0
  9
$OLESTARTUP
290
     0
  0
ENDSEC
  0
SECTION
  2
CLASSES
  0
CLASS
  1
ACDBDICTIONARYWDFLT
  2
AcDbDictionaryWithDefault
  3
ObjectDBX Classes
 90
        0
280
     0
281
     0
  0
CLASS
  1
VISUALSTYLE
  2
AcDbVisualStyle
  3
ObjectDBX Classes
 90
     4095
280
     0
281
     0
  0
CLASS
  1
MATERIAL
  2
AcDbMaterial
  3
ObjectDBX Classes
 90
     1153
280
     0
281
     0
  0
CLASS
  1
SCALE
  2
AcDbScale
  3
ObjectDBX Classes
 90
     1153
280
     0
281
     0
  0
CLASS
  1
SUN
  2
AcDbSun
  3
SCENEOE
 90
     1153
280
     0
281
     0
  0
CLASS
  1
DICTIONARYVAR
  2
AcDbDictionaryVar
  3
ObjectDBX Classes
 90
        0
280
     0
281
     0
  0
CLASS
  1
ACDBPLACEHOLDER
  2
AcDbPlaceHolder
  3
ObjectDBX Classes
 90
        0
280
     0
281
     0
  0
CLASS
  1
LAYOUT
  2
AcDbLayout
  3
ObjectDBX Classes
 90
        0
280
     0
281
     0
  0
ENDSEC
  0
SECTION
  2
TABLES
  0
TABLE
  2
VPORT
  5
8
330
0
100
AcDbSymbolTable
 70
     1
  0
VPORT
  5
29
330
8
100
AcDbSymbolTableRecord
100
AcDbViewportTableRecord
  2
*Active
 70
     0
 10
0.0
 20
0.0
 11
1.0
 21
1.0
 12
-315.3153153153154
 22
445.9459459459461
 13
0.0
 23
0.0
 14
0.5
 24
0.5
 15
0.5
 25
0.5
 16
0.0
 26
0.0
 36
1.0
 17
0.0
 27
0.0
 37
0.0
 40
981.0810810810814
 41
1.60267857142857
 42
50.0
 43
0.0
 44
0.0
 50
0.0
 51
0.0
 71
     0
 72
   100
 73
     1
 74
     3
 75
     0
 76
     0
 77
     0
 78
     0
281
     0
 65
     1
110
0.0
120
0.0
130
0.0
111
1.0
121
0.0
131
0.0
112
0.0
122
1.0
132
0.0
 79
     0
146
0.0
  0
ENDTAB
  0
TABLE
  2
LTYPE
  5
5
330
0
100
AcDbSymbolTable
 70
     8
  0
LTYPE
  5
14
330
5
100
AcDbSymbolTableRecord
100
AcDbLinetypeTableRecord
  2
ByBlock
 70
     0
  3

 72
    65
 73
     0
 40
0.0
  0
LTYPE
  5
15
330
5
100
AcDbSymbolTableRecord
100
AcDbLinetypeTableRecord
  2
ByLayer
 70
     0
  3

 72
    65
 73
     0
 40
0.0
  0
LTYPE
  5
16
330
5
100
AcDbSymbolTableRecord
100
AcDbLinetypeTableRecord
  2
Continuous
 70
     0
  3
Solid line
 72
    65
 73
     0
 40
0.0
  0
LTYPE
  5
6A
330
5
100
AcDbSymbolTableRecord
100
AcDbLinetypeTableRecord
  2
DASHED
 70
     0
  3
Dashed
 72
    65
 73
     2
 40
15.0
 49
7.0
 74
     0
 49
-8.0
 74
     0
  0
LTYPE
  5
6B
330
5
100
AcDbSymbolTableRecord
100
AcDbLinetypeTableRecord
  2
DOTTED
 70
     0
  3
Dotted
 72
    65
 73
     2
 40
1.0
 49
0.0
 74
     0
 49
-1.0
 74
     0
  0
LTYPE
  5
6C
330
5
100
AcDbSymbolTableRecord
100
AcDbLinetypeTableRecord
  2
DOT_CENTER
 70
     0
  3
Dot_Center
 72
    65
 73
     4
 40
14.0
 49
12.0
 74
     0
 49
-1.0
 74
     0
 49
0.0
 74
     0
 49
-1.0
 74
     0
  0
LTYPE
  5
6D
330
5
100
AcDbSymbolTableRecord
100
AcDbLinetypeTableRecord
  2
LONG_DASHED
 70
     0
  3
Long_Dashed
 72
    65
 73
     2
 40
15.0
 49
10.0
 74
     0
 49
-5.0
 74
     0
  0
LTYPE
  5
6E
330
5
100
AcDbSymbolTableRecord
100
AcDbLinetypeTableRecord
  2
DASH_CENTER
 70
     0
  3
Dash_Center
 72
    65
 73
     4
 40
14.0
 49
11.0
 74
     0
 49
-1.0
 74
     0
 49
1.0
 74
     0
 49
-1.0
 74
     0
  0
LTYPE
  5
6F
330
5
100
AcDbSymbolTableRecord
100
AcDbLinetypeTableRecord
  2
PHANTOM
 70
     0
  3
Phantom
 72
    65
 73
     6
 40
13.0
 49
10.0
 74
     0
 49
-1.0
 74
     0
 49
0.0
 74
     0
 49
-1.0
 74
     0
 49
0.0
 74
     0
 49
-1.0
 74
     0
  0
LTYPE
  5
70
330
5
100
AcDbSymbolTableRecord
100
AcDbLinetypeTableRecord
  2
CENTER_DASH_DASH
 70
     0
  3
Center_Dash_Dash
 72
    65
 73
     6
 40
14.0
 49
9.0
 74
     0
 49
-1.0
 74
     0
 49
1.0
 74
     0
 49
-1.0
 74
     0
 49
1.0
 74
     0
 49
-1.0
 74
     0
  0
ENDTAB
  0
TABLE
  2
LAYER
  5
2
330
0
100
AcDbSymbolTable
 70
     2
  0
LAYER
  5
10
330
2
100
AcDbSymbolTableRecord
100
AcDbLayerTableRecord
  2
0
 70
     0
 62
     7
  6
Continuous
370
    -3
390
F
  0
LAYER
  5
71
330
2
100
AcDbSymbolTableRecord
100
AcDbLayerTableRecord
  2
1
 70
     0
 62
     7
  6
Continuous
370
    -3
390
F
  0
ENDTAB
  0
TABLE
  2
STYLE
  5
3
330
0
100
AcDbSymbolTable
 70
     4
  0
STYLE
  5
11
330
3
100
AcDbSymbolTableRecord
100
AcDbTextStyleTableRecord
  2
Standard
 70
     0
 40
0.0
 41
1.0
 50
0.0
 71
     0
 42
0.2
  3
txt
  4

  0
STYLE
  5
CB
330
3
100
AcDbSymbolTableRecord
100
AcDbTextStyleTableRecord
  2
CONVERTER_11
 70
     0
 40
0.0
 41
1.2
 50
0.0
 71
     0
 42
0.2
  3
ARIAL.TTF
  4

  0
STYLE
  5
D4
330
3
100
AcDbSymbolTableRecord
100
AcDbTextStyleTableRecord
  2
CONVERTER_12
 70
     0
 40
0.0
 41
1.38
 50
0.0
 71
     0
 42
0.2
  3
ARIAL.TTF
  4

  0
STYLE
  5
1A7
330
3
100
AcDbSymbolTableRecord
100
AcDbTextStyleTableRecord
  2
CONVERTER_13
 70
     0
 40
0.0
 41
0.95
 50
0.0
 71
     0
 42
0.2
  3
simplex.shx
  4

  0
ENDTAB
  0
TABLE
  2
VIEW
  5
6
330
0
100
AcDbSymbolTable
 70
     0
  0
ENDTAB
  0
TABLE
  2
UCS
  5
7
330
0
100
AcDbSymbolTable
 70
     0
  0
ENDTAB
  0
TABLE
  2
APPID
  5
9
330
0
100
AcDbSymbolTable
 70
     1
  0
APPID
  5
12
330
9
100
AcDbSymbolTableRecord
100
AcDbRegAppTableRecord
  2
ACAD
 70
     0
  0
ENDTAB
  0
TABLE
  2
DIMSTYLE
  5
A
330
0
100
AcDbSymbolTable
 70
     7
100
AcDbDimStyleTable
  0
DIMSTYLE
105
27
330
A
100
AcDbSymbolTableRecord
100
AcDbDimStyleTableRecord
  2
Standard
 70
     0
178
     0
340
11
  0
DIMSTYLE
105
1AB
102
{ACAD_REACTORS
330
1AC
102
}
330
A
100
AcDbSymbolTableRecord
100
AcDbDimStyleTableRecord
  2
ME10_DIM_10
 70
     0
 41
9.00900900900901
 42
1.5015015015015
 44
3.003003003003
 73
     0
 74
     0
 77
     1
 78
     8
140
9.00900900900901
147
6.00600600600601
172
     1
173
     1
174
     1
175
     1
176
     7
177
     7
271
     2
178
     7
271
     2
340
1A7
  0
DIMSTYLE
105
1B6
102
{ACAD_REACTORS
330
1B7
102
}
330
A
100
AcDbSymbolTableRecord
100
AcDbDimStyleTableRecord
  2
ME10_DIM_11
 70
     0
 41
9.00900900900901
 42
1.5015015015015
 44
3.003003003003
 73
     0
 74
     0
 77
     1
 78
     8
140
9.00900900900901
147
6.00600600600601
172
     1
173
     1
174
     1
175
     1
176
     7
177
     7
271
     2
178
     7
271
     2
340
1A7
  0
DIMSTYLE
105
1C1
102
{ACAD_REACTORS
330
1C2
102
}
330
A
100
AcDbSymbolTableRecord
100
AcDbDimStyleTableRecord
  2
ME10_DIM_12
 70
     0
 41
9.00900900900901
 42
1.5015015015015
 44
3.003003003003
 73
     0
 74
     0
 77
     1
 78
     8
140
9.00900900900901
147
6.00600600600601
172
     1
173
     1
174
     1
175
     1
176
     7
177
     7
271
     2
178
     7
271
     2
340
1A7
  0
DIMSTYLE
105
1CC
102
{ACAD_REACTORS
330
1CD
102
}
330
A
100
AcDbSymbolTableRecord
100
AcDbDimStyleTableRecord
  2
ME10_DIM_13
 70
     0
 41
9.00900900900901
 42
1.5015015015015
 44
3.003003003003
 73
     0
 74
     0
 77
     1
 78
     8
140
9.00900900900901
147
6.00600600600601
172
     1
173
     1
174
     1
175
     1
176
     7
177
     7
271
     2
178
     7
271
     2
340
1A7
  0
DIMSTYLE
105
1D9
102
{ACAD_REACTORS
330
1DA
102
}
330
A
100
AcDbSymbolTableRecord
100
AcDbDimStyleTableRecord
  2
ME10_DIM_14
 70
     0
 41
9.00900900900901
 42
1.5015015015015
 44
3.003003003003
 73
     0
 74
     0
 77
     1
 78
     8
140
9.00900900900901
147
6.00600600600601
172
     1
173
     1
174
     1
175
     1
176
     7
177
     7
271
     2
178
     7
271
     2
340
1A7
  0
DIMSTYLE
105
1E4
102
{ACAD_REACTORS
330
1E5
102
}
330
A
100
AcDbSymbolTableRecord
100
AcDbDimStyleTableRecord
  2
ME10_DIM_15
 70
     0
 41
9.00900900900901
 42
1.5015015015015
 44
3.003003003003
 73
     0
 74
     0
 77
     1
 78
     8
140
9.00900900900901
147
6.00600600600601
172
     1
173
     1
174
     1
175
     1
176
     7
177
     7
271
     2
178
     7
271
     2
340
1A7
  0
ENDTAB
  0
TABLE
  2
BLOCK_RECORD
  5
1
330
0
100
AcDbSymbolTable
 70
    10
  0
BLOCK_RECORD
  5
1F
330
1
100
AcDbSymbolTableRecord
100
AcDbBlockTableRecord
  2
*Model_Space
340
22
  0
BLOCK_RECORD
  5
1B
330
1
100
AcDbSymbolTableRecord
100
AcDbBlockTableRecord
  2
*Paper_Space
340
1E
  0
BLOCK_RECORD
  5
23
330
1
100
AcDbSymbolTableRecord
100
AcDbBlockTableRecord
  2
*Paper_Space0
340
26
  0
BLOCK_RECORD
  5
72
330
1
100
AcDbSymbolTableRecord
100
AcDbBlockTableRecord
  2
_dummy_frame
340
0
102
{BLKREFS
331
7C
102
}
  0
BLOCK_RECORD
  5
75
330
1
100
AcDbSymbolTableRecord
100
AcDbBlockTableRecord
  2
_formato_A4
340
0
102
{BLKREFS
331
79
102
}
  0
BLOCK_RECORD
  5
78
330
1
100
AcDbSymbolTableRecord
100
AcDbBlockTableRecord
  2
A4
340
0
102
{BLKREFS
331
7D
102
}
  0
BLOCK_RECORD
  5
19F
330
1
100
AcDbSymbolTableRecord
100
AcDbBlockTableRecord
  2
*D4
340
0
  0
BLOCK_RECORD
  5
1AD
330
1
100
AcDbSymbolTableRecord
100
AcDbBlockTableRecord
  2
*D5
340
0
  0
BLOCK_RECORD
  5
1B8
330
1
100
AcDbSymbolTableRecord
100
AcDbBlockTableRecord
  2
*D6
340
0
  0
BLOCK_RECORD
  5
1C3
330
1
100
AcDbSymbolTableRecord
100
AcDbBlockTableRecord
  2
*D7
340
0
  0
BLOCK_RECORD
  5
1CE
330
1
100
AcDbSymbolTableRecord
100
AcDbBlockTableRecord
  2
*D8
340
0
  0
BLOCK_RECORD
  5
1DB
330
1
100
AcDbSymbolTableRecord
100
AcDbBlockTableRecord
  2
*D9
340
0
  0
ENDTAB
  0
ENDSEC
  0
SECTION
  2
BLOCKS
  0
BLOCK
  5
20
330
1F
100
AcDbEntity
  8
0
100
AcDbBlockBegin
  2
*Model_Space
 70
     0
 10
0.0
 20
0.0
 30
0.0
  3
*Model_Space
  1
*Model_Space
  0
ENDBLK
  5
21
330
1F
100
AcDbEntity
  8
0
100
AcDbBlockEnd
  0
BLOCK
  5
1C
330
1B
100
AcDbEntity
 67
     1
  8
0
100
AcDbBlockBegin
  2
*Paper_Space
 70
     0
 10
0.0
 20
0.0
 30
0.0
  3
*Paper_Space
  1
*Paper_Space
  0
ENDBLK
  5
1D
330
1B
100
AcDbEntity
 67
     1
  8
0
100
AcDbBlockEnd
  0
BLOCK
  5
24
330
23
100
AcDbEntity
  8
0
100
AcDbBlockBegin
  2
*Paper_Space0
 70
     0
 10
0.0
 20
0.0
 30
0.0
  3
*Paper_Space0
  1
*Paper_Space0
  0
ENDBLK
  5
25
330
23
100
AcDbEntity
  8
0
100
AcDbBlockEnd
  0
BLOCK
  5
73
330
72
100
AcDbEntity
  8
0
100
AcDbBlockBegin
  2
_dummy_frame
 70
     0
 10
242.343587150654
 20
534.159672142886
 30
0.0
  3
_dummy_frame
  1
_dummy_frame
  0
POINT
  5
7E
330
72
100
AcDbEntity
  8
1
 62
     7
 60
     1
100
AcDbPoint
 10
242.343587150654
 20
534.159672142886
 30
0.0
  0
ENDBLK
  5
74
330
72
100
AcDbEntity
  8
0
100
AcDbBlockEnd
  0
BLOCK
  5
76
330
75
100
AcDbEntity
  8
0
100
AcDbBlockBegin
  2
_formato_A4
 70
     0
 10
480.6788565328411
 20
-655.5834282693753
 30
0.0
  3
_formato_A4
  1
_formato_A4
  0
LINE
  5
7F
330
75
100
AcDbEntity
  8
1
  6
Continuous
 62
     7
100
AcDbLine
 10
291.6788565328411
 20
-635.5834282693753
 30
0.0
 11
475.6788565328411
 21
-635.5834282693753
 31
0.0
  0
LINE
  5
80
330
75
100
AcDbEntity
  8
1
  6
Continuous
 62
     7
100
AcDbLine
 10
291.6788565328411
 20
-650.5834282693754
 30
0.0
 11
475.6788565328411
 21
-650.5834282693754
 31
0.0
  0
LINE
  5
81
330
75
100
AcDbEntity
  8
1
  6
Continuous
 62
     7
100
AcDbLine
 10
316.6788565328412
 20
-620.5834282693753
 30
0.0
 11
316.6788565328412
 21
-615.5834282693753
 31
0.0
  0
LINE
  5
82
330
75
100
AcDbEntity
  8
1
  6
Continuous
 62
     7
100
AcDbLine
 10
298.6788565328411
 20
-620.5834282693753
 30
0.0
 11
298.6788565328411
 21
-615.5834282693753
 31
0.0
  0
LINE
  5
83
330
75
100
AcDbEntity
  8
1
  6
Continuous
 62
     7
100
AcDbLine
 10
291.6788565328411
 20
-615.5834282693753
 30
0.0
 11
475.6788565328411
 21
-615.5834282693753
 31
0.0
  0
LINE
  5
84
330
75
100
AcDbEntity
  8
1
  6
Continuous
 62
     7
100
AcDbLine
 10
316.6788565328412
 20
-625.5834282693753
 30
0.0
 11
316.6788565328412
 21
-620.5834282693753
 31
0.0
  0
LINE
  5
85
330
75
100
AcDbEntity
  8
1
  6
Continuous
 62
     7
100
AcDbLine
 10
298.6788565328411
 20
-625.5834282693753
 30
0.0
 11
298.6788565328411
 21
-620.5834282693753
 31
0.0
  0
LINE
  5
86
330
75
100
AcDbEntity
  8
1
  6
Continuous
 62
     7
100
AcDbLine
 10
291.6788565328411
 20
-620.5834282693753
 30
0.0
 11
475.6788565328411
 21
-620.5834282693753
 31
0.0
  0
LINE
  5
87
330
75
100
AcDbEntity
  8
1
  6
Continuous
 62
     7
100
AcDbLine
 10
316.6788565328412
 20
-630.5834282693753
 30
0.0
 11
316.6788565328412
 21
-625.5834282693753
 31
0.0
  0
LINE
  5
88
330
75
100
AcDbEntity
  8
1
  6
Continuous
 62
     7
100
AcDbLine
 10
298.6788565328411
 20
-630.5834282693753
 30
0.0
 11
298.6788565328411
 21
-625.5834282693753
 31
0.0
  0
LINE
  5
89
330
75
100
AcDbEntity
  8
1
  6
Continuous
 62
     7
100
AcDbLine
 10
291.6788565328411
 20
-625.5834282693753
 30
0.0
 11
475.6788565328411
 21
-625.5834282693753
 31
0.0
  0
LINE
  5
8A
330
75
100
AcDbEntity
  8
1
  6
Continuous
 62
     7
100
AcDbLine
 10
316.6788565328412
 20
-635.5834282693753
 30
0.0
 11
316.6788565328412
 21
-630.5834282693753
 31
0.0
  0
LINE
  5
8B
330
75
100
AcDbEntity
  8
1
  6
Continuous
 62
     7
100
AcDbLine
 10
298.6788565328411
 20
-635.5834282693753
 30
0.0
 11
298.6788565328411
 21
-630.5834282693753
 31
0.0
  0
LINE
  5
8C
330
75
100
AcDbEntity
  8
1
  6
Continuous
 62
     7
100
AcDbLine
 10
291.6788565328411
 20
-630.5834282693753
 30
0.0
 11
475.6788565328411
 21
-630.5834282693753
 31
0.0
  0
LINE
  5
8D
102
{ACAD_REACTORS
330
D6
102
}
330
75
100
AcDbEntity
  8
1
  6
Continuous
 62
     7
100
AcDbLine
 10
466.5217313727469
 20
-645.025426188995
 30
0.0
 11
465.1883980394136
 21
-645.7946569582256
 31
0.0
  0
LINE
  5
8E
102
{ACAD_REACTORS
330
D6
102
}
330
75
100
AcDbEntity
  8
1
  6
Continuous
 62
     7
100
AcDbLine
 10
465.3551572215838
 20
-644.9287917367274
 30
0.0
 11
466.1885830704206
 21
-644.4479691316291
 31
0.0
  0
LINE
  5
8F
102
{ACAD_REACTORS
330
D6
102
}
330
75
100
AcDbEntity
  8
1
  6
Continuous
 62
     7
100
AcDbLine
 10
465.3551572215838
 20
-643.4167616027087
 30
0.0
 11
465.3551572215838
 21
-644.9287917367274
 31
0.0
  0
LINE
  5
90
102
{ACAD_REACTORS
330
D6
102
}
330
75
100
AcDbEntity
  8
1
  6
Continuous
 62
     7
100
AcDbLine
 10
466.3551572215838
 20
-643.4167616027087
 30
0.0
 11
465.3551572215838
 21
-643.4167616027087
 31
0.0
  0
LINE
  5
91
102
{ACAD_REACTORS
330
D6
102
}
330
75
100
AcDbEntity
  8
1
  6
Continuous
 62
     7
100
AcDbLine
 10
465.3551572215838
 20
-642.750094936042
 30
0.0
 11
466.3551572215838
 21
-642.750094936042
 31
0.0
  0
LINE
  5
92
102
{ACAD_REACTORS
330
D6
102
}
330
75
100
AcDbEntity
  8
1
  6
Continuous
 62
     7
100
AcDbLine
 10
465.3551572215838
 20
-641.2380648020234
 30
0.0
 11
465.3551572215838
 21
-642.750094936042
 31
0.0
  0
LINE
  5
93
102
{ACAD_REACTORS
330
D6
102
}
330
75
100
AcDbEntity
  8
1
  6
Continuous
 62
     7
100
AcDbLine
 10
466.1885830704206
 20
-641.7188874071215
 30
0.0
 11
465.3551572215838
 21
-641.2380648020234
 31
0.0
  0
LINE
  5
94
102
{ACAD_REACTORS
330
D6
102
}
330
75
100
AcDbEntity
  8
1
  6
Continuous
 62
     7
100
AcDbLine
 10
465.1883980394136
 20
-640.372199580525
 30
0.0
 11
466.5217313727469
 21
-641.1414303497559
 31
0.0
  0
LINE
  5
95
102
{ACAD_REACTORS
330
D7
102
}
330
75
100
AcDbEntity
  8
1
  6
Continuous
 62
     7
100
AcDbLine
 10
458.0218238882504
 20
-644.7366976603121
 30
0.0
 11
458.0218238882504
 21
-641.4301588784386
 31
0.0
  0
LINE
  5
96
102
{ACAD_REACTORS
330
D7
102
}
330
75
100
AcDbEntity
  8
1
  6
Continuous
 62
     7
100
AcDbLine
 10
458.6884905549171
 20
-644.544176352112
 30
0.0
 11
458.6884905549171
 21
-644.7366976603121
 31
0.0
  0
LINE
  5
97
102
{ACAD_REACTORS
330
D7
102
}
330
75
100
AcDbEntity
  8
1
  6
Continuous
 62
     7
100
AcDbLine
 10
458.6884905549171
 20
-641.4301588784386
 30
0.0
 11
458.6884905549171
 21
-644.544176352112
 31
0.0
  0
LINE
  5
98
102
{ACAD_REACTORS
330
D8
102
}
330
75
100
AcDbEntity
  8
1
  6
Continuous
 62
     7
100
AcDbLine
 10
461.8552497370873
 20
-647.1408108043795
 30
0.0
 11
459.6886755859241
 21
-645.8908641787084
 31
0.0
  0
LINE
  5
99
102
{ACAD_REACTORS
330
D8
102
}
330
75
100
AcDbEntity
  8
1
  6
Continuous
 62
     7
100
AcDbLine
 10
460.0218238882504
 20
-645.3134071213426
 30
0.0
 11
462.1883980394136
 21
-646.5633537470137
 31
0.0
  0
LINE
  5
9A
102
{ACAD_REACTORS
330
D8
102
}
330
75
100
AcDbEntity
  8
1
  6
Continuous
 62
     7
100
AcDbLine
 10
460.0218238882504
 20
-640.6609281092079
 30
0.0
 11
460.0218238882504
 21
-645.3134071213426
 31
0.0
  0
LINE
  5
9B
102
{ACAD_REACTORS
330
D8
102
}
330
75
100
AcDbEntity
  8
1
  6
Continuous
 62
     7
100
AcDbLine
 10
459.3551572215838
 20
-645.3134071213427
 30
0.0
 11
459.3551572215838
 21
-640.6609281092079
 31
0.0
  0
LINE
  5
9C
102
{ACAD_REACTORS
330
D9
102
}
330
75
100
AcDbEntity
  8
1
  6
Continuous
 62
     7
100
AcDbLine
 10
463.5273902046271
 20
-639.719727851103
 30
0.0
 11
462.3551572215838
 21
-641.750094936042
 31
0.0
  0
LINE
  5
9D
102
{ACAD_REACTORS
330
D9
102
}
330
75
100
AcDbEntity
  8
1
  6
Continuous
 62
     7
100
AcDbLine
 10
464.0218238882504
 20
-646.2751591987735
 30
0.0
 11
464.0218238882504
 21
-639.8522109573407
 31
0.0
  0
LINE
  5
9E
102
{ACAD_REACTORS
330
D9
102
}
330
75
100
AcDbEntity
  8
1
  6
Continuous
 62
     7
100
AcDbLine
 10
463.3551572215838
 20
-643.0834282693753
 30
0.0
 11
463.3551572215838
 21
-646.2751591987735
 31
0.0
  0
LINE
  5
9F
102
{ACAD_REACTORS
330
D9
102
}
330
75
100
AcDbEntity
  8
1
  6
Continuous
 62
     7
100
AcDbLine
 10
461.3551572215838
 20
-644.7358431967424
 30
0.0
 11
461.3551572215838
 21
-643.0834282693753
 31
0.0
  0
LINE
  5
A0
102
{ACAD_REACTORS
330
D9
102
}
330
75
100
AcDbEntity
  8
1
  6
Continuous
 62
     7
100
AcDbLine
 10
460.6884905549171
 20
-643.0834282693753
 30
0.0
 11
460.6884905549171
 21
-644.7358431967424
 31
0.0
  0
LINE
  5
A1
102
{ACAD_REACTORS
330
D9
102
}
330
75
100
AcDbEntity
  8
1
  6
Continuous
 62
     7
100
AcDbLine
 10
461.1829242385405
 20
-639.719727851103
 30
0.0
 11
462.3551572215838
 21
-641.750094936042
 31
0.0
  0
LINE
  5
A2
102
{ACAD_REACTORS
330
D9
102
}
330
75
100
AcDbEntity
  8
1
  6
Continuous
 62
     7
100
AcDbLine
 10
460.6884905549171
 20
-643.0834282693753
 30
0.0
 11
460.6884905549171
 21
-639.8522109573407
 31
0.0
  0
LINE
  5
A3
330
75
100
AcDbEntity
  8
1
  6
Continuous
 62
     7
100
AcDbLine
 10
462.3551572215838
 20
-648.0834282693753
 30
0.0
 11
453.9387219464422
 21
-643.2277925337168
 31
0.0
  0
LINE
  5
A4
330
75
100
AcDbEntity
  8
1
  6
Continuous
 62
     7
100
AcDbLine
 10
470.7715924967253
 20
-643.2277925337168
 30
0.0
 11
462.3551572215838
 21
-648.0834282693753
 31
0.0
  0
LINE
  5
A5
330
75
100
AcDbEntity
  8
1
  6
Continuous
 62
     7
100
AcDbLine
 10
462.3551572215838
 20
-638.0834282693753
 30
0.0
 11
470.7715924967253
 21
-642.939064005034
 31
0.0
  0
LINE
  5
A6
330
75
100
AcDbEntity
  8
1
  6
Continuous
 62
     7
100
AcDbLine
 10
453.9387219464422
 20
-642.939064005034
 30
0.0
 11
462.3551572215838
 21
-638.0834282693753
 31
0.0
  0
LINE
  5
A7
102
{ACAD_REACTORS
330
D9
102
}
330
75
100
AcDbEntity
  8
1
  6
Continuous
 62
     7
100
AcDbLine
 10
461.3551572215838
 20
-641.3513774618065
 30
0.0
 11
461.3551572215838
 21
-643.0834282693753
 31
0.0
  0
LINE
  5
A8
102
{ACAD_REACTORS
330
D9
102
}
330
75
100
AcDbEntity
  8
1
  6
Continuous
 62
     7
100
AcDbLine
 10
462.2108196542864
 20
-642.8334282693753
 30
0.0
 11
461.3551572215838
 21
-641.3513774618065
 31
0.0
  0
LINE
  5
A9
102
{ACAD_REACTORS
330
D9
102
}
330
75
100
AcDbEntity
  8
1
  6
Continuous
 62
     7
100
AcDbLine
 10
463.3551572215838
 20
-641.3513774618065
 30
0.0
 11
462.4994947888812
 21
-642.8334282693753
 31
0.0
  0
LINE
  5
AA
102
{ACAD_REACTORS
330
D9
102
}
330
75
100
AcDbEntity
  8
1
  6
Continuous
 62
     7
100
AcDbLine
 10
463.3551572215838
 20
-643.0834282693753
 30
0.0
 11
463.3551572215838
 21
-641.3513774618065
 31
0.0
  0
LINE
  5
AB
102
{ACAD_REACTORS
330
D6
102
}
330
75
100
AcDbEntity
  8
1
  6
Continuous
 62
     7
100
AcDbLine
 10
464.6884905549172
 20
-645.5059284295427
 30
0.0
 11
464.6884905549172
 21
-640.6609281092079
 31
0.0
  0
LINE
  5
AC
330
75
100
AcDbEntity
  8
1
  6
Continuous
 62
     7
100
AcDbLine
 10
291.6788565328411
 20
-363.5834282693752
 30
0.0
 11
291.6788565328411
 21
-650.5834282693754
 31
0.0
  0
LINE
  5
AD
330
75
100
AcDbEntity
  8
1
  6
Continuous
 62
     7
100
AcDbLine
 10
475.6788565328411
 20
-363.5834282693752
 30
0.0
 11
291.6788565328411
 21
-363.5834282693752
 31
0.0
  0
LINE
  5
AE
330
75
100
AcDbEntity
  8
1
  6
Continuous
 62
     7
100
AcDbLine
 10
475.6788565328411
 20
-650.5834282693754
 30
0.0
 11
475.6788565328411
 21
-363.5834282693752
 31
0.0
  0
LINE
  5
AF
330
75
100
AcDbEntity
  8
1
  6
Continuous
 62
     7
100
AcDbLine
 10
480.6788565328411
 20
-358.5834282693752
 30
0.0
 11
270.678856532841
 21
-358.5834282693752
 31
0.0
  0
LINE
  5
B0
330
75
100
AcDbEntity
  8
1
  6
Continuous
 62
     7
100
AcDbLine
 10
270.678856532841
 20
-358.5834282693752
 30
0.0
 11
270.678856532841
 21
-655.5834282693753
 31
0.0
  0
LINE
  5
B1
330
75
100
AcDbEntity
  8
1
  6
Continuous
 62
     7
100
AcDbLine
 10
270.678856532841
 20
-655.5834282693753
 30
0.0
 11
480.6788565328411
 21
-655.5834282693753
 31
0.0
  0
LINE
  5
B2
330
75
100
AcDbEntity
  8
1
  6
Continuous
 62
     7
100
AcDbLine
 10
480.6788565328411
 20
-655.5834282693753
 30
0.0
 11
480.6788565328411
 21
-358.5834282693752
 31
0.0
  0
LINE
  5
B3
330
75
100
AcDbEntity
  8
1
  6
Continuous
 62
     7
100
AcDbLine
 10
270.678856532841
 20
-507.0834282693755
 30
0.0
 11
285.678856532841
 21
-507.0834282693755
 31
0.0
  0
LINE
  5
B4
330
75
100
AcDbEntity
  8
1
  6
Continuous
 62
     7
100
AcDbLine
 10
291.6788565328411
 20
-645.5834282693754
 30
0.0
 11
321.6788565328411
 21
-645.5834282693754
 31
0.0
  0
LINE
  5
B5
330
75
100
AcDbEntity
  8
1
  6
Continuous
 62
     7
100
AcDbLine
 10
321.6788565328411
 20
-635.5834282693753
 30
0.0
 11
321.6788565328411
 21
-650.5834282693753
 31
0.0
  0
LINE
  5
B6
330
75
100
AcDbEntity
  8
1
  6
Continuous
 62
     7
100
AcDbLine
 10
449.0314579103265
 20
-635.5834282693753
 30
0.0
 11
449.0314579103265
 21
-650.5834282693753
 31
0.0
  0
LINE
  5
B7
330
75
100
AcDbEntity
  8
1
  6
Continuous
 62
     7
100
AcDbLine
 10
431.6788565328411
 20
-635.5834282693753
 30
0.0
 11
431.6788565328411
 21
-650.5834282693753
 31
0.0
  0
LINE
  5
B8
330
75
100
AcDbEntity
  8
1
  6
Continuous
 62
     7
100
AcDbLine
 10
291.6788565328411
 20
-635.5834282693753
 30
0.0
 11
291.6788565328411
 21
-650.5834282693754
 31
0.0
  0
LINE
  5
B9
330
75
100
AcDbEntity
  8
1
  6
Continuous
 62
     7
100
AcDbLine
 10
291.6788565328411
 20
-640.5834282693754
 30
0.0
 11
321.6788565328411
 21
-640.5834282693754
 31
0.0
  0
ARC
  5
BA
102
{ACAD_REACTORS
330
D6
102
}
330
75
100
AcDbEntity
  8
1
  6
Continuous
 62
     7
100
AcDbCircle
 10
466.3551572215838
 20
-644.7366976603121
 30
0.0
 40
0.3333333333333141
100
AcDbArc
 50
299.9816393688337
 51
119.9816393688409
  0
ARC
  5
BB
102
{ACAD_REACTORS
330
D6
102
}
330
75
100
AcDbEntity
  8
1
  6
Continuous
 62
     7
100
AcDbCircle
 10
466.3551572215838
 20
-643.0834282693753
 30
0.0
 40
0.3333333333333712
100
AcDbArc
 50
270.0
 51
90.0
  0
ARC
  5
BC
102
{ACAD_REACTORS
330
D6
102
}
330
75
100
AcDbEntity
  8
1
  6
Continuous
 62
     7
100
AcDbCircle
 10
466.3551572215838
 20
-641.4301588784386
 30
0.0
 40
0.3333333333333709
100
AcDbArc
 50
240.0183606311493
 51
60.01836063115653
  0
ARC
  5
BD
102
{ACAD_REACTORS
330
D7
102
}
330
75
100
AcDbEntity
  8
1
  6
Continuous
 62
     7
100
AcDbCircle
 10
458.3551572215838
 20
-644.7366976603121
 30
0.0
 40
0.3333333333333712
100
AcDbArc
 50
180.0
 51
0.0
  0
ARC
  5
BE
102
{ACAD_REACTORS
330
D7
102
}
330
75
100
AcDbEntity
  8
1
  6
Continuous
 62
     7
100
AcDbCircle
 10
458.3551572215838
 20
-641.4301588784386
 30
0.0
 40
0.3333333333333144
100
AcDbArc
 50
0.0
 51
180.0
  0
ARC
  5
BF
102
{ACAD_REACTORS
330
D8
102
}
330
75
100
AcDbEntity
  8
1
  6
Continuous
 62
     7
100
AcDbCircle
 10
462.0218238882504
 20
-646.8520822756966
 30
0.0
 40
0.3333333333333141
100
AcDbArc
 50
240.0183606311663
 51
60.01836063115783
  0
ARC
  5
C0
102
{ACAD_REACTORS
330
D8
102
}
330
75
100
AcDbEntity
  8
1
  6
Continuous
 62
     7
100
AcDbCircle
 10
459.6884905549171
 20
-640.6609281092079
 30
0.0
 40
0.3333333333333144
100
AcDbArc
 50
0.0
 51
180.0
  0
ARC
  5
C1
102
{ACAD_REACTORS
330
D9
102
}
330
75
100
AcDbEntity
  8
1
  6
Continuous
 62
     7
100
AcDbCircle
 10
463.7568576757751
 20
-639.8522109573407
 30
0.0
 40
0.2649662124753149
100
AcDbArc
 50
0.0
 51
149.9999999999695
  0
ARC
  5
C2
102
{ACAD_REACTORS
330
D9
102
}
330
75
100
AcDbEntity
  8
1
  6
Continuous
 62
     7
100
AcDbCircle
 10
463.6884905549172
 20
-646.2751591987735
 30
0.0
 40
0.3333333333334281
100
AcDbArc
 50
180.0
 51
0.0
  0
ARC
  5
C3
102
{ACAD_REACTORS
330
D9
102
}
330
75
100
AcDbEntity
  8
1
  6
Continuous
 62
     7
100
AcDbCircle
 10
461.0218238882504
 20
-644.7358431967424
 30
0.0
 40
0.3333333333333144
100
AcDbArc
 50
180.0
 51
0.0
  0
ARC
  5
C4
102
{ACAD_REACTORS
330
D9
102
}
330
75
100
AcDbEntity
  8
1
  6
Continuous
 62
     7
100
AcDbCircle
 10
460.9534567673924
 20
-639.8522109573407
 30
0.0
 40
0.2649662124752827
100
AcDbArc
 50
30.00000000001821
 51
180.0
  0
ARC
  5
C5
102
{ACAD_REACTORS
330
D6
102
}
330
75
100
AcDbEntity
  8
1
  6
Continuous
 62
     7
100
AcDbCircle
 10
465.0218238882504
 20
-645.5059284295427
 30
0.0
 40
0.3333333333332007
100
AcDbArc
 50
180.0
 51
299.9816393688421
  0
ARC
  5
C6
102
{ACAD_REACTORS
330
D6
102
}
330
75
100
AcDbEntity
  8
1
  6
Continuous
 62
     7
100
AcDbCircle
 10
465.0218238882504
 20
-640.6609281092079
 30
0.0
 40
0.3333333333333425
100
AcDbArc
 50
60.01836063115783
 51
180.0
  0
ARC
  5
C7
330
75
100
AcDbEntity
  8
1
  6
Continuous
 62
     7
100
AcDbCircle
 10
470.6883054211437
 20
-643.0834282693753
 30
0.0
 40
0.1666666666666854
100
AcDbArc
 50
299.9816393688506
 51
60.01836063112984
  0
ARC
  5
C8
330
75
100
AcDbEntity
  8
1
  6
Continuous
 62
     7
100
AcDbCircle
 10
454.0220090220239
 20
-643.0834282693753
 30
0.0
 40
0.1666666666666438
100
AcDbArc
 50
119.981639368904
 51
240.0183606311155
  0
ARC
  5
C9
102
{ACAD_REACTORS
330
D8
102
}
330
75
100
AcDbEntity
  8
1
  6
Continuous
 62
     7
100
AcDbCircle
 10
460.0218238882504
 20
-645.3134071213426
 30
0.0
 40
0.6666666666666288
100
AcDbArc
 50
180.0000000000097
 51
240.0183606311578
  0
ARC
  5
CA
102
{ACAD_REACTORS
330
D9
102
}
330
75
100
AcDbEntity
  8
1
  6
Continuous
 62
     7
100
AcDbCircle
 10
462.3551572215838
 20
-642.750094936042
 30
0.0
 40
0.1666666666666096
100
AcDbArc
 50
209.9999999999812
 51
330.0000000000188
  0
MTEXT
  5
CC
330
75
100
AcDbEntity
  8
1
 62
     7
100
AcDbMText
 10
440.3551572215839
 20
-645.5227888486193
 30
0.0
 40
4.5
 41
0.0
 71
     5
 72
     1
  1
1:3
  7
CONVERTER_11
 73
     1
 44
1.32052821128451
  0
MTEXT
  5
CD
330
75
100
AcDbEntity
  8
1
 62
     7
100
AcDbMText
 10
440.3551572215839
 20
-639.3227888486193
 30
0.0
 40
3.0
 41
0.0
 71
     5
 72
     1
  1
Scale
  7
CONVERTER_11
 73
     1
 44
1.32052821128451
  0
MTEXT
  5
CE
330
75
100
AcDbEntity
  8
1
 62
     7
100
AcDbMText
 10
327.9551572215838
 20
-643.0834282693753
 30
0.0
 40
4.5
 41
0.0
 71
     4
 72
     1
  1
APF 20\PMounting plate 20VC
  7
CONVERTER_11
 73
     1
 44
0.90036014405762
  0
MTEXT
  5
CF
330
75
100
AcDbEntity
  8
1
 62
     7
100
AcDbMText
 10
303.2788565328411
 20
-648.0834282693754
 30
0.0
 40
3.0
 41
0.0
 71
     4
 72
     1
  1
D. Bonino
  7
CONVERTER_11
 73
     1
 44
1.32052821128451
  0
MTEXT
  5
D0
330
75
100
AcDbEntity
  8
1
 62
     7
100
AcDbMText
 10
292.6788565328411
 20
-648.0834282693754
 30
0.0
 40
3.0
 41
0.0
 71
     4
 72
     1
  1
Sign.
  7
CONVERTER_11
 73
     1
 44
1.32052821128451
  0
MTEXT
  5
D1
330
75
100
AcDbEntity
  8
1
 62
     7
100
AcDbMText
 10
303.2788565328411
 20
-643.0834282693754
 30
0.0
 40
3.0
 41
0.0
 71
     4
 72
     1
  1
05/05/16
  7
CONVERTER_11
 73
     1
 44
1.32052821128451
  0
MTEXT
  5
D2
330
75
100
AcDbEntity
  8
1
 62
     7
100
AcDbMText
 10
292.6788565328411
 20
-643.0834282693754
 30
0.0
 40
3.0
 41
0.0
 71
     4
 72
     1
  1
Date
  7
CONVERTER_11
 73
     1
 44
1.32052821128451
  0
MTEXT
  5
D3
330
75
100
AcDbEntity
  8
1
 62
     7
100
AcDbMText
 10
286.678856532841
 20
-504.0834282693755
 30
0.0
 40
4.0
 41
0.0
 71
     5
 72
     1
  1
Diritti riservati      All rights reserved
  7
CONVERTER_11
 11
0.0
 21
1.0
 31
0.0
 73
     1
 44
1.32052821128451
  0
MTEXT
  5
D5
330
75
100
AcDbEntity
  8
1
 62
     7
100
AcDbMText
 10
306.6788565328411
 20
-638.0834282693754
 30
0.0
 40
2.5
 41
0.0
 71
     5
 72
     1
  1
dimensions in mm
  7
CONVERTER_12
 73
     1
 44
0.60024009603842
  0
HATCH
  5
D6
330
75
100
AcDbEntity
  8
1
  6
Continuous
 62
     7
100
AcDbHatch
 10
0.0
 20
0.0
 30
0.0
210
0.0
220
0.0
230
1.0
  2
SOLID
 70
     1
 71
     1
 91
        1
 92
        1
 93
       14
 72
     2
 10
465.0218238882504
 20
-640.6609281092079
 40
0.3333333333333425
 50
60.01836063115783
 51
180.0
 73
     1
 72
     1
 10
464.6884905549172
 20
-640.6609281092079
 11
464.6884905549172
 21
-645.5059284295427
 72
     2
 10
465.0218238882504
 20
-645.5059284295427
 40
0.3333333333332007
 50
180.0
 51
299.9816393688421
 73
     1
 72
     1
 10
465.1883980394136
 20
-645.7946569582256
 11
466.5217313727469
 21
-645.025426188995
 72
     2
 10
466.3551572215838
 20
-644.7366976603121
 40
0.3333333333333141
 50
299.9816393688337
 51
479.9816393688409
 73
     1
 72
     1
 10
466.1885830704206
 20
-644.4479691316291
 11
465.3551572215838
 21
-644.9287917367274
 72
     1
 10
465.3551572215838
 20
-644.9287917367274
 11
465.3551572215838
 21
-643.4167616027087
 72
     1
 10
465.3551572215838
 20
-643.4167616027087
 11
466.3551572215838
 21
-643.4167616027087
 72
     2
 10
466.3551572215838
 20
-643.0834282693753
 40
0.3333333333333712
 50
270.0
 51
450.0
 73
     1
 72
     1
 10
466.3551572215838
 20
-642.750094936042
 11
465.3551572215838
 21
-642.750094936042
 72
     1
 10
465.3551572215838
 20
-642.750094936042
 11
465.3551572215838
 21
-641.2380648020234
 72
     1
 10
465.3551572215838
 20
-641.2380648020234
 11
466.1885830704206
 21
-641.7188874071215
 72
     2
 10
466.3551572215838
 20
-641.4301588784386
 40
0.3333333333333709
 50
240.0183606311493
 51
420.0183606311565
 73
     1
 72
     1
 10
466.5217313727469
 20
-641.1414303497559
 11
465.1883980394136
 21
-640.372199580525
 97
       14
330
BC
330
93
330
92
330
91
330
BB
330
90
330
8F
330
8E
330
BA
330
8D
330
C5
330
AB
330
C6
330
94
 75
     0
 76
     1
 98
        1
 10
0.0
 20
0.0
  0
HATCH
  5
D7
330
75
100
AcDbEntity
  8
1
  6
Continuous
 62
     7
100
AcDbHatch
 10
0.0
 20
0.0
 30
0.0
210
0.0
220
0.0
230
1.0
  2
SOLID
 70
     1
 71
     1
 91
        1
 92
        1
 93
        5
 72
     2
 10
458.3551572215838
 20
-641.4301588784386
 40
0.3333333333333144
 50
0.0
 51
180.0
 73
     1
 72
     1
 10
458.0218238882504
 20
-641.4301588784386
 11
458.0218238882504
 21
-644.7366976603121
 72
     2
 10
458.3551572215838
 20
-644.7366976603121
 40
0.3333333333333712
 50
180.0
 51
360.0
 73
     1
 72
     1
 10
458.6884905549171
 20
-644.7366976603121
 11
458.6884905549171
 21
-644.544176352112
 72
     1
 10
458.6884905549171
 20
-644.544176352112
 11
458.6884905549171
 21
-641.4301588784386
 97
        5
330
BE
330
95
330
BD
330
96
330
97
 75
     0
 76
     1
 98
        1
 10
0.0
 20
0.0
  0
HATCH
  5
D8
330
75
100
AcDbEntity
  8
1
  6
Continuous
 62
     7
100
AcDbHatch
 10
0.0
 20
0.0
 30
0.0
210
0.0
220
0.0
230
1.0
  2
SOLID
 70
     1
 71
     1
 91
        1
 92
        1
 93
        7
 72
     2
 10
459.6884905549171
 20
-640.6609281092079
 40
0.3333333333333144
 50
0.0
 51
180.0
 73
     1
 72
     1
 10
459.3551572215838
 20
-640.6609281092079
 11
459.3551572215838
 21
-645.3134071213427
 72
     2
 10
460.0218238882504
 20
-645.3134071213426
 40
0.6666666666666288
 50
180.0000000000097
 51
240.0183606311578
 73
     1
 72
     1
 10
459.6886755859241
 20
-645.8908641787084
 11
461.8552497370873
 21
-647.1408108043795
 72
     2
 10
462.0218238882504
 20
-646.8520822756966
 40
0.3333333333333141
 50
240.0183606311663
 51
420.0183606311578
 73
     1
 72
     1
 10
462.1883980394136
 20
-646.5633537470137
 11
460.0218238882504
 21
-645.3134071213426
 72
     1
 10
460.0218238882504
 20
-645.3134071213426
 11
460.0218238882504
 21
-640.6609281092079
 97
        7
330
C0
330
9B
330
C9
330
98
330
BF
330
99
330
9A
 75
     0
 76
     1
 98
        1
 10
0.0
 20
0.0
  0
HATCH
  5
D9
330
75
100
AcDbEntity
  8
1
  6
Continuous
 62
     7
100
AcDbHatch
 10
0.0
 20
0.0
 30
0.0
210
0.0
220
0.0
230
1.0
  2
SOLID
 70
     1
 71
     1
 91
        1
 92
        1
 93
       16
 72
     2
 10
463.7568576757751
 20
-639.8522109573407
 40
0.2649662124753149
 50
210.0000000000305
 51
360.0
 73
     0
 72
     1
 10
464.0218238882504
 20
-639.8522109573407
 11
464.0218238882504
 21
-646.2751591987735
 72
     2
 10
463.6884905549172
 20
-646.2751591987735
 40
0.3333333333334281
 50
0.0
 51
180.0
 73
     0
 72
     1
 10
463.3551572215838
 20
-646.2751591987735
 11
463.3551572215838
 21
-643.0834282693753
 72
     1
 10
463.3551572215838
 20
-643.0834282693753
 11
463.3551572215838
 21
-641.3513774618065
 72
     1
 10
463.3551572215838
 20
-641.3513774618065
 11
462.4994947888812
 21
-642.8334282693753
 72
     2
 10
462.3551572215838
 20
-642.750094936042
 40
0.1666666666666096
 50
29.99999999998124
 51
150.0000000000188
 73
     0
 72
     1
 10
462.2108196542864
 20
-642.8334282693753
 11
461.3551572215838
 21
-641.3513774618065
 72
     1
 10
461.3551572215838
 20
-641.3513774618065
 11
461.3551572215838
 21
-643.0834282693753
 72
     1
 10
461.3551572215838
 20
-643.0834282693753
 11
461.3551572215838
 21
-644.7358431967424
 72
     2
 10
461.0218238882504
 20
-644.7358431967424
 40
0.3333333333333144
 50
0.0
 51
180.0
 73
     0
 72
     1
 10
460.6884905549171
 20
-644.7358431967424
 11
460.6884905549171
 21
-643.0834282693753
 72
     1
 10
460.6884905549171
 20
-643.0834282693753
 11
460.6884905549171
 21
-639.8522109573407
 72
     2
 10
460.9534567673924
 20
-639.8522109573407
 40
0.2649662124752827
 50
180.0
 51
329.9999999999818
 73
     0
 72
     1
 10
461.1829242385405
 20
-639.719727851103
 11
462.3551572215838
 21
-641.750094936042
 72
     1
 10
462.3551572215838
 20
-641.750094936042
 11
463.5273902046271
 21
-639.719727851103
 97
       16
330
A1
330
C4
330
A2
330
A0
330
C3
330
9F
330
A7
330
A8
330
CA
330
A9
330
AA
330
9E
330
C2
330
9D
330
C1
330
9C
 75
     0
 76
     1
 98
        1
 10
0.0
 20
0.0
  0
ENDBLK
  5
77
330
75
100
AcDbEntity
  8
0
100
AcDbBlockEnd
  0
BLOCK
  5
7A
330
78
100
AcDbEntity
  8
0
100
AcDbBlockBegin
  2
A4
 70
     0
 10
0.0
 20
0.0
 30
0.0
  3
A4
  1
A4
  0
INSERT
  5
79
330
78
100
AcDbEntity
  8
1
100
AcDbBlockReference
  2
_formato_A4
 10
0.0
 20
0.0
 30
0.0
 41
3.00300300300296
 42
3.00300300300296
 43
3.00300300300296
  0
ENDBLK
  5
7B
330
78
100
AcDbEntity
  8
0
100
AcDbBlockEnd
  0
BLOCK
  5
1A9
330
19F
100
AcDbEntity
  8
0
100
AcDbBlockBegin
  2
*D4
 70
     1
 10
0.0
 20
0.0
 30
0.0
  3
*D4
  1
*D4
  0
LINE
  5
1A0
330
19F
100
AcDbEntity
  8
1
  6
Continuous
 62
     7
100
AcDbLine
 10
-500.5412291766791
 20
529.1407100955888
 30
0.0
 11
-487.800566452597
 21
541.8813728196707
 31
0.0
  0
LINE
  5
1A1
330
19F
100
AcDbEntity
  8
1
  6
Continuous
 62
     7
100
AcDbLine
 10
-487.800566452597
 20
541.8813728196707
 30
0.0
 11
-484.6185859372575
 21
545.0633533350101
 31
0.0
  0
LINE
  5
1A2
330
19F
100
AcDbEntity
  8
1
  6
Continuous
 62
     7
100
AcDbLine
 10
-484.6185859372575
 20
545.0633533350101
 30
0.0
 11
-471.8779232131755
 21
557.804016059092
 31
0.0
  0
LINE
  5
1A3
330
19F
100
AcDbEntity
  8
1
  6
Continuous
 62
     7
100
AcDbLine
 10
-463.987620777408
 20
518.0684271444812
 30
0.0
 11
-489.924010239944
 21
544.0048166070177
 31
0.0
  0
LINE
  5
1A4
330
19F
100
AcDbEntity
  8
1
  6
Continuous
 62
     7
100
AcDbLine
 10
-460.8056402620686
 20
521.2504076598207
 30
0.0
 11
-486.7420297246045
 21
547.1867971223571
 31
0.0
  0
SOLID
  5
1A5
330
19F
100
AcDbEntity
  8
1
 62
     7
100
AcDbTrace
 10
-493.332227780366
 20
534.6723714233577
 30
0.0
 11
-495.00956784891
 21
536.3497114919018
 31
0.0
 12
-487.800566452597
 22
541.8813728196707
 32
0.0
 13
-487.800566452597
 23
541.8813728196707
 33
0.0
  0
SOLID
  5
1A6
330
19F
100
AcDbEntity
  8
1
 62
     7
100
AcDbTrace
 10
-479.0869246094886
 20
552.272354731323
 30
0.0
 11
-477.4095845409445
 21
550.595014662779
 31
0.0
 12
-484.6185859372575
 22
545.0633533350101
 32
0.0
 13
-484.6185859372575
 23
545.0633533350101
 33
0.0
  0
MTEXT
  5
1A8
330
19F
100
AcDbEntity
  8
1
 62
     7
100
AcDbMText
 10
-496.9860534157133
 20
542.4637272783506
 30
0.0
 40
9.00900900900901
 41
0.0
 71
     7
 72
     1
  1
4,5
  7
CONVERTER_13
 11
0.7071067811865522
 21
0.7071067811865428
 31
0.0
 73
     1
 44
0.60024009603842
  0
ENDBLK
  5
1AA
330
19F
100
AcDbEntity
  8
0
100
AcDbBlockEnd
  0
BLOCK
  5
1B4
330
1AD
100
AcDbEntity
  8
0
100
AcDbBlockBegin
  2
*D5
 70
     1
 10
0.0
 20
0.0
 30
0.0
  3
*D5
  1
*D5
  0
LINE
  5
1AE
330
1AD
100
AcDbEntity
  8
1
  6
Continuous
 62
     7
100
AcDbLine
 10
-494.9963727593313
 20
516.2591596417437
 30
0.0
 11
-494.9963727593313
 21
278.2591596417438
 31
0.0
  0
LINE
  5
1AF
330
1AD
100
AcDbEntity
  8
1
  6
Continuous
 62
     7
100
AcDbLine
 10
-466.8978742608327
 20
516.2591596417437
 30
0.0
 11
-497.9993757623343
 21
516.2591596417437
 31
0.0
  0
LINE
  5
1B0
330
1AD
100
AcDbEntity
  8
1
  6
Continuous
 62
     7
100
AcDbLine
 10
-466.8978742608326
 20
278.2591596417438
 30
0.0
 11
-497.9993757623343
 21
278.2591596417438
 31
0.0
  0
SOLID
  5
1B1
330
1AD
100
AcDbEntity
  8
1
 62
     7
100
AcDbTrace
 10
-493.8103142225079
 20
507.2501506327347
 30
0.0
 11
-496.1824312961547
 21
507.2501506327347
 31
0.0
 12
-494.9963727593313
 22
516.2591596417437
 32
0.0
 13
-494.9963727593313
 23
516.2591596417437
 33
0.0
  0
SOLID
  5
1B2
330
1AD
100
AcDbEntity
  8
1
 62
     7
100
AcDbTrace
 10
-496.1824312961547
 20
287.2681686507528
 30
0.0
 11
-493.8103142225079
 21
287.2681686507528
 31
0.0
 12
-494.9963727593313
 22
278.2591596417438
 32
0.0
 13
-494.9963727593313
 23
278.2591596417438
 33
0.0
  0
MTEXT
  5
1B3
330
1AD
100
AcDbEntity
  8
1
 62
     7
100
AcDbMText
 10
-501.0023787653373
 20
386.4483488309328
 30
0.0
 40
9.00900900900901
 41
0.0
 71
     7
 72
     1
  1
238
  7
CONVERTER_13
 11
0.0
 21
1.0
 31
0.0
 73
     1
 44
0.60024009603842
  0
ENDBLK
  5
1B5
330
1AD
100
AcDbEntity
  8
0
100
AcDbBlockEnd
  0
BLOCK
  5
1BF
330
1B8
100
AcDbEntity
  8
0
100
AcDbBlockBegin
  2
*D6
 70
     1
 10
0.0
 20
0.0
 30
0.0
  3
*D6
  1
*D6
  0
LINE
  5
1B9
330
1B8
100
AcDbEntity
  8
1
  6
Continuous
 62
     7
100
AcDbLine
 10
-458.9963727593312
 20
552.2591596417437
 30
0.0
 11
-260.9963727593312
 21
552.2591596417437
 31
0.0
  0
LINE
  5
1BA
330
1B8
100
AcDbEntity
  8
1
  6
Continuous
 62
     7
100
AcDbLine
 10
-458.9963727593312
 20
524.1606611432454
 30
0.0
 11
-458.9963727593312
 21
555.2621626447467
 31
0.0
  0
LINE
  5
1BB
330
1B8
100
AcDbEntity
  8
1
  6
Continuous
 62
     7
100
AcDbLine
 10
-260.9963727593312
 20
524.1606611432454
 30
0.0
 11
-260.9963727593312
 21
555.2621626447467
 31
0.0
  0
SOLID
  5
1BC
330
1B8
100
AcDbEntity
  8
1
 62
     7
100
AcDbTrace
 10
-449.9873637503222
 20
553.4452181785671
 30
0.0
 11
-449.9873637503222
 21
551.0731011049204
 31
0.0
 12
-458.9963727593312
 22
552.2591596417437
 32
0.0
 13
-458.9963727593312
 23
552.2591596417437
 33
0.0
  0
SOLID
  5
1BD
330
1B8
100
AcDbEntity
  8
1
 62
     7
100
AcDbTrace
 10
-270.0053817683402
 20
551.0731011049204
 30
0.0
 11
-270.0053817683402
 21
553.4452181785671
 31
0.0
 12
-260.9963727593312
 22
552.2591596417437
 32
0.0
 13
-260.9963727593312
 23
552.2591596417437
 33
0.0
  0
MTEXT
  5
1BE
330
1B8
100
AcDbEntity
  8
1
 62
     7
100
AcDbMText
 10
-369.4558322187906
 20
558.2651656477497
 30
0.0
 40
9.00900900900901
 41
0.0
 71
     7
 72
     1
  1
198
  7
CONVERTER_13
 11
0.9999999999970619
 21
2.424068405545306E-6
 31
0.0
 73
     1
 44
0.60024009603842
  0
ENDBLK
  5
1C0
330
1B8
100
AcDbEntity
  8
0
100
AcDbBlockEnd
  0
BLOCK
  5
1CA
330
1C3
100
AcDbEntity
  8
0
100
AcDbBlockBegin
  2
*D7
 70
     1
 10
0.0
 20
0.0
 30
0.0
  3
*D7
  1
*D7
  0
LINE
  5
1C4
330
1C3
100
AcDbEntity
  8
1
  6
Continuous
 62
     7
100
AcDbLine
 10
-464.9963727593312
 20
242.2591596417438
 30
0.0
 11
-254.9963727593312
 21
242.2591596417438
 31
0.0
  0
LINE
  5
1C5
330
1C3
100
AcDbEntity
  8
1
  6
Continuous
 62
     7
100
AcDbLine
 10
-464.9963727593312
 20
270.7576581402424
 30
0.0
 11
-464.9963727593312
 21
239.2561566387408
 31
0.0
  0
LINE
  5
1C6
330
1C3
100
AcDbEntity
  8
1
  6
Continuous
 62
     7
100
AcDbLine
 10
-254.9963727593312
 20
270.7576581402423
 30
0.0
 11
-254.9963727593312
 21
239.2561566387408
 31
0.0
  0
SOLID
  5
1C7
330
1C3
100
AcDbEntity
  8
1
 62
     7
100
AcDbTrace
 10
-455.9873637503222
 20
243.4452181785672
 30
0.0
 11
-455.9873637503222
 21
241.0731011049204
 31
0.0
 12
-464.9963727593312
 22
242.2591596417438
 32
0.0
 13
-464.9963727593312
 23
242.2591596417438
 33
0.0
  0
SOLID
  5
1C8
330
1C3
100
AcDbEntity
  8
1
 62
     7
100
AcDbTrace
 10
-264.0053817683402
 20
241.0731011049204
 30
0.0
 11
-264.0053817683402
 21
243.4452181785672
 31
0.0
 12
-254.9963727593312
 22
242.2591596417438
 32
0.0
 13
-254.9963727593312
 23
242.2591596417438
 33
0.0
  0
MTEXT
  5
1C9
330
1C3
100
AcDbEntity
  8
1
 62
     7
100
AcDbMText
 10
-369.4558322187906
 20
248.2651656477498
 30
0.0
 40
9.00900900900901
 41
0.0
 71
     7
 72
     1
  1
210
  7
CONVERTER_13
 11
0.9999999999970619
 21
2.424068405545306E-6
 31
0.0
 73
     1
 44
0.60024009603842
  0
ENDBLK
  5
1CB
330
1C3
100
AcDbEntity
  8
0
100
AcDbBlockEnd
  0
BLOCK
  5
1D7
330
1CE
100
AcDbEntity
  8
0
100
AcDbBlockBegin
  2
*D8
 70
     1
 10
0.0
 20
0.0
 30
0.0
  3
*D8
  1
*D8
  0
LINE
  5
1CF
330
1CE
100
AcDbEntity
  8
1
  6
Continuous
 62
     7
100
AcDbLine
 10
-224.9963727593311
 20
678.2331572609307
 30
0.0
 11
-224.9963727593311
 21
645.1591596417438
 31
0.0
  0
LINE
  5
1D0
330
1CE
100
AcDbEntity
  8
1
  6
Continuous
 62
     7
100
AcDbLine
 10
-224.9963727593311
 20
645.1591596417438
 30
0.0
 11
-224.9963727593311
 21
643.6591596417438
 31
0.0
  0
LINE
  5
1D1
330
1CE
100
AcDbEntity
  8
1
  6
Continuous
 62
     7
100
AcDbLine
 10
-224.9963727593311
 20
643.6591596417438
 30
0.0
 11
-224.9963727593311
 21
625.6411416237258
 31
0.0
  0
LINE
  5
1D2
330
1CE
100
AcDbEntity
  8
1
  6
Continuous
 62
     7
100
AcDbLine
 10
-253.4948712578295
 20
645.1591596417438
 30
0.0
 11
-221.993369756328
 21
645.1591596417438
 31
0.0
  0
LINE
  5
1D3
330
1CE
100
AcDbEntity
  8
1
  6
Continuous
 62
     7
100
AcDbLine
 10
-253.4948712578295
 20
643.6591596417438
 30
0.0
 11
-221.993369756328
 21
643.6591596417438
 31
0.0
  0
SOLID
  5
1D4
330
1CE
100
AcDbEntity
  8
1
 62
     7
100
AcDbTrace
 10
-226.1824312961544
 20
654.1681686507528
 30
0.0
 11
-223.8103142225077
 21
654.1681686507528
 31
0.0
 12
-224.9963727593311
 22
645.1591596417438
 32
0.0
 13
-224.9963727593311
 23
645.1591596417438
 33
0.0
  0
SOLID
  5
1D5
330
1CE
100
AcDbEntity
  8
1
 62
     7
100
AcDbTrace
 10
-223.8103142225077
 20
634.6501506327348
 30
0.0
 11
-226.1824312961544
 21
634.6501506327348
 31
0.0
 12
-224.9963727593311
 22
643.6591596417438
 32
0.0
 13
-224.9963727593311
 23
643.6591596417438
 33
0.0
  0
MTEXT
  5
1D6
330
1CE
100
AcDbEntity
  8
1
 62
     7
100
AcDbMText
 10
-231.9032796662379
 20
664.2691932969667
 30
0.0
 40
9.00900900900901
 41
0.0
 71
     7
 72
     1
  1
1,5
  7
CONVERTER_13
 11
0.0
 21
1.0
 31
0.0
 73
     1
 44
0.60024009603842
  0
ENDBLK
  5
1D8
330
1CE
100
AcDbEntity
  8
0
100
AcDbBlockEnd
  0
BLOCK
  5
1E2
330
1DB
100
AcDbEntity
  8
0
100
AcDbBlockBegin
  2
*D9
 70
     1
 10
0.0
 20
0.0
 30
0.0
  3
*D9
  1
*D9
  0
LINE
  5
1DC
330
1DB
100
AcDbEntity
  8
1
  6
Continuous
 62
     7
100
AcDbLine
 10
-224.9963727593311
 20
522.2591596417437
 30
0.0
 11
-224.9963727593311
 21
272.2591596417436
 31
0.0
  0
LINE
  5
1DD
330
1DB
100
AcDbEntity
  8
1
  6
Continuous
 62
     7
100
AcDbLine
 10
-253.4948712578295
 20
522.2591596417437
 30
0.0
 11
-221.9933697563281
 21
522.2591596417437
 31
0.0
  0
LINE
  5
1DE
330
1DB
100
AcDbEntity
  8
1
  6
Continuous
 62
     7
100
AcDbLine
 10
-253.4948712578295
 20
272.2591596417436
 30
0.0
 11
-221.9933697563281
 21
272.2591596417436
 31
0.0
  0
SOLID
  5
1DF
330
1DB
100
AcDbEntity
  8
1
 62
     7
100
AcDbTrace
 10
-223.8103142225077
 20
513.2501506327347
 30
0.0
 11
-226.1824312961545
 21
513.2501506327347
 31
0.0
 12
-224.9963727593311
 22
522.2591596417437
 32
0.0
 13
-224.9963727593311
 23
522.2591596417437
 33
0.0
  0
SOLID
  5
1E0
330
1DB
100
AcDbEntity
  8
1
 62
     7
100
AcDbTrace
 10
-226.1824312961545
 20
281.2681686507526
 30
0.0
 11
-223.8103142225077
 21
281.2681686507526
 31
0.0
 12
-224.9963727593311
 22
272.2591596417436
 32
0.0
 13
-224.9963727593311
 23
272.2591596417436
 33
0.0
  0
MTEXT
  5
1E1
330
1DB
100
AcDbEntity
  8
1
 62
     7
100
AcDbMText
 10
-231.0023787653371
 20
386.4483488309328
 30
0.0
 40
9.00900900900901
 41
0.0
 71
     7
 72
     1
  1
250
  7
CONVERTER_13
 11
0.0
 21
1.0
 31
0.0
 73
     1
 44
0.60024009603842
  0
ENDBLK
  5
1E3
330
1DB
100
AcDbEntity
  8
0
100
AcDbBlockEnd
  0
ENDSEC
  0
SECTION
  2
ENTITIES
  0
INSERT
  5
7C
330
1F
100
AcDbEntity
  8
1
100
AcDbBlockReference
  2
_dummy_frame
 10
242.343587150654
 20
534.159672142886
 30
0.0
  0
INSERT
  5
7D
330
1F
100
AcDbEntity
  8
0
100
AcDbBlockReference
  2
A4
 10
0.0
 20
0.0
 30
0.0
  0
LINE
  5
DA
330
1F
100
AcDbEntity
  8
0
  6
Continuous
 62
     7
100
AcDbLine
 10
-45.01501501501497
 20
846.56993529815
 30
0.0
 11
-119.2612270396025
 21
803.5981142763213
 31
0.0
  0
LINE
  5
DB
330
1F
100
AcDbEntity
  8
0
  6
Continuous
 62
     7
100
AcDbLine
 10
-119.2612270396025
 20
803.5981142763213
 30
0.0
 11
-119.2612270396025
 21
701.6621683624605
 31
0.0
  0
LINE
  5
DC
330
1F
100
AcDbEntity
  8
0
  6
Continuous
 62
     7
100
AcDbLine
 10
-119.7915571254924
 20
803.9050558550488
 30
0.0
 11
-119.7915571254924
 21
701.9691099411879
 31
0.0
  0
LINE
  5
DD
330
1F
100
AcDbEntity
  8
0
  6
Continuous
 62
     7
100
AcDbLine
 10
-116.8756094113352
 20
707.0916057821843
 30
0.0
 11
-118.5292039807506
 21
704.2275003360247
 31
0.0
  0
LINE
  5
DE
330
1F
100
AcDbEntity
  8
0
  6
Continuous
 62
     7
100
AcDbLine
 10
-116.2809394972251
 20
706.7522360013078
 30
0.0
 11
-117.9345340666405
 21
703.8881305551482
 31
0.0
  0
LINE
  5
DF
330
1F
100
AcDbEntity
  8
0
  6
Continuous
 62
     7
100
AcDbLine
 10
-117.4059394972251
 20
801.2370881710328
 30
0.0
 11
-118.5288888765887
 21
801.8822214511596
 31
0.0
  0
LINE
  5
E0
330
1F
100
AcDbEntity
  8
0
  6
Continuous
 62
     7
100
AcDbLine
 10
-118.5292039807505
 20
801.8801349962097
 30
0.0
 11
-116.8756094113352
 21
800.9301465923055
 31
0.0
  0
LINE
  5
E1
330
1F
100
AcDbEntity
  8
0
  6
Continuous
 62
     7
100
AcDbLine
 10
-117.4042039807506
 20
703.5811889764209
 30
0.0
 11
-115.7506094113352
 21
706.4452944225804
 31
0.0
  0
LINE
  5
E2
330
1F
100
AcDbEntity
  8
0
  6
Continuous
 62
     7
100
AcDbLine
 10
-115.7506094113352
 20
706.4452944225804
 30
0.0
 11
-116.2809394972251
 21
706.7522360013078
 31
0.0
  0
LINE
  5
E3
330
1F
100
AcDbEntity
  8
0
  6
Continuous
 62
     7
100
AcDbLine
 10
-117.4042039807506
 20
703.5811889764209
 30
0.0
 11
-117.9345340666405
 21
703.8881305551482
 31
0.0
  0
LINE
  5
E4
330
1F
100
AcDbEntity
  8
0
  6
Continuous
 62
     7
100
AcDbLine
 10
-45.54534510090491
 20
846.8768768768772
 30
0.0
 11
-45.01501501501497
 21
846.56993529815
 31
0.0
  0
LINE
  5
E5
330
1F
100
AcDbEntity
  8
0
  6
Continuous
 62
     7
100
AcDbLine
 10
-45.54534510090491
 20
846.8768768768772
 30
0.0
 11
-119.7915571254924
 21
803.9050558550488
 31
0.0
  0
LINE
  5
E6
330
1F
100
AcDbEntity
  8
0
  6
Continuous
 62
     7
100
AcDbLine
 10
-115.7506094113352
 20
802.8787007823865
 30
0.0
 11
-117.4042039807506
 21
803.8286891862907
 31
0.0
  0
LINE
  5
E7
330
1F
100
AcDbEntity
  8
0
  6
Continuous
 62
     7
100
AcDbLine
 10
-113.031616297349
 20
803.4320246889591
 30
0.0
 11
-114.1771292828712
 21
802.769030878908
 31
0.0
  0
LINE
  5
E8
330
1F
100
AcDbEntity
  8
0
  6
Continuous
 62
     7
100
AcDbLine
 10
-114.1771292828712
 20
802.8913540140046
 30
0.0
 11
-113.031616297349
 21
803.5543478240558
 31
0.0
  0
LINE
  5
E9
330
1F
100
AcDbEntity
  8
0
  6
Continuous
 62
     7
100
AcDbLine
 10
-114.4882562665933
 20
803.1597997831723
 30
0.0
 11
-113.6574057986991
 21
803.6406749231785
 31
0.0
  0
LINE
  5
EA
330
1F
100
AcDbEntity
  8
0
  6
Continuous
 62
     7
100
AcDbLine
 10
-113.3427432810711
 20
802.8034341340848
 30
0.0
 11
-113.8660022991491
 21
802.5005851097404
 31
0.0
  0
LINE
  5
EB
330
1F
100
AcDbEntity
  8
0
  6
Continuous
 62
     7
100
AcDbLine
 10
-117.4059394972251
 20
801.2370881710328
 30
0.0
 11
-116.8756094113352
 21
800.9301465923055
 31
0.0
  0
LINE
  5
EC
330
1F
100
AcDbEntity
  8
0
  6
Continuous
 62
     7
100
AcDbLine
 10
-114.5594156930425
 20
802.5309407113419
 30
0.0
 11
-114.3119283196272
 21
802.3877013079359
 31
0.0
  0
LINE
  5
ED
330
1F
100
AcDbEntity
  8
0
  6
Continuous
 62
     7
100
AcDbLine
 10
-114.1771292828712
 20
802.769030878908
 30
0.0
 11
-114.1771292828712
 21
802.8913540140046
 31
0.0
  0
LINE
  5
EE
330
1F
100
AcDbEntity
  8
0
  6
Continuous
 62
     7
100
AcDbLine
 10
-114.4882562665933
 20
803.0374766480757
 30
0.0
 11
-114.4882562665933
 21
803.1597997831723
 31
0.0
  0
LINE
  5
EF
330
1F
100
AcDbEntity
  8
0
  6
Continuous
 62
     7
100
AcDbLine
 10
-113.8660022991491
 20
802.622908244837
 30
0.0
 11
-113.3427432810711
 21
802.9257572691814
 31
0.0
  0
LINE
  5
F0
330
1F
100
AcDbEntity
  8
0
  6
Continuous
 62
     7
100
AcDbLine
 10
-113.8660022991491
 20
802.5005851097404
 30
0.0
 11
-113.8660022991491
 21
802.622908244837
 31
0.0
  0
LINE
  5
F1
330
1F
100
AcDbEntity
  8
0
  6
Continuous
 62
     7
100
AcDbLine
 10
-113.3427432810711
 20
802.8034341340848
 30
0.0
 11
-113.4484175253542
 21
802.864595701633
 31
0.0
  0
LINE
  5
F2
330
1F
100
AcDbEntity
  8
0
  6
Continuous
 62
     7
100
AcDbLine
 10
-113.3427432810711
 20
802.9257572691814
 30
0.0
 11
-113.3427432810711
 21
802.8034341340848
 31
0.0
  0
LINE
  5
F3
330
1F
100
AcDbEntity
  8
0
  6
Continuous
 62
     7
100
AcDbLine
 10
-113.031616297349
 20
803.5543478240558
 30
0.0
 11
-113.031616297349
 21
803.4320246889591
 31
0.0
  0
LINE
  5
F4
330
1F
100
AcDbEntity
  8
0
  6
Continuous
 62
     7
100
AcDbLine
 10
-113.031616297349
 20
803.4320246889591
 30
0.0
 11
-113.137290541632
 21
803.4931862565074
 31
0.0
  0
LINE
  5
F5
330
1F
100
AcDbEntity
  8
0
  6
Continuous
 62
     7
100
AcDbLine
 10
-113.5513397815211
 20
803.7020632389239
 30
0.0
 11
-113.6574057986991
 21
803.7634515546694
 31
0.0
  0
LINE
  5
F6
330
1F
100
AcDbEntity
  8
0
  6
Continuous
 62
     7
100
AcDbLine
 10
-113.5513397815211
 20
804.5990995629659
 30
0.0
 11
-113.5513397815211
 21
803.7020632389239
 31
0.0
  0
LINE
  5
F7
330
1F
100
AcDbEntity
  8
0
  6
Continuous
 62
     7
100
AcDbLine
 10
-113.6574057986991
 20
803.6406749231785
 30
0.0
 11
-113.6574057986991
 21
804.5377112472205
 31
0.0
  0
LINE
  5
F8
330
1F
100
AcDbEntity
  8
0
  6
Continuous
 62
     7
100
AcDbLine
 10
-113.6574057986991
 20
804.5377112472205
 30
0.0
 11
-113.5513397815211
 21
804.5990995629659
 31
0.0
  0
LINE
  5
F9
330
1F
100
AcDbEntity
  8
0
  6
Continuous
 62
     7
100
AcDbLine
 10
-112.7204893136269
 20
804.1829383789301
 30
0.0
 11
-112.7204893136269
 21
804.0606152438335
 31
0.0
  0
LINE
  5
FA
330
1F
100
AcDbEntity
  8
0
  6
Continuous
 62
     7
100
AcDbLine
 10
-112.7204893136269
 20
804.0606152438335
 30
0.0
 11
-112.82616355791
 21
804.1217768113818
 31
0.0
  0
LINE
  5
FB
330
1F
100
AcDbEntity
  8
0
  6
Continuous
 62
     7
100
AcDbLine
 10
-113.5513397815211
 20
803.7020632389239
 30
0.0
 11
-112.7204893136269
 21
804.1829383789301
 31
0.0
  0
LINE
  5
FC
330
1F
100
AcDbEntity
  8
0
  6
Continuous
 62
     7
100
AcDbLine
 10
-112.7204893136269
 20
804.0606152438335
 30
0.0
 11
-114.4882562665933
 21
803.0374766480757
 31
0.0
  0
LINE
  5
FD
330
1F
100
AcDbEntity
  8
0
  6
Continuous
 62
     7
100
AcDbLine
 10
-113.1443046340083
 20
804.975953122476
 30
0.0
 11
-112.896817260593
 21
804.8327137190698
 31
0.0
  0
LINE
  5
FE
330
1F
100
AcDbEntity
  8
0
  6
Continuous
 62
     7
100
AcDbLine
 10
-119.7915571254924
 20
803.9050558550488
 30
0.0
 11
-119.2612270396025
 21
803.5981142763213
 31
0.0
  0
LINE
  5
FF
330
1F
100
AcDbEntity
  8
0
  6
Continuous
 62
     7
100
AcDbLine
 10
-46.87203807386692
 20
844.6509146841896
 30
0.0
 11
-48.52563264328234
 21
841.7868092380301
 31
0.0
  0
LINE
  5
100
330
1F
100
AcDbEntity
  8
0
  6
Continuous
 62
     7
100
AcDbLine
 10
-47.40063264328234
 20
841.1404978784262
 30
0.0
 11
-45.74703807386692
 21
844.0046033245857
 31
0.0
  0
LINE
  5
101
330
1F
100
AcDbEntity
  8
0
  6
Continuous
 62
     7
100
AcDbLine
 10
-45.74703807386692
 20
844.0046033245857
 30
0.0
 11
-46.27736815975692
 21
844.3115449033131
 31
0.0
  0
LINE
  5
102
330
1F
100
AcDbEntity
  8
0
  6
Continuous
 62
     7
100
AcDbLine
 10
-46.27736815975692
 20
844.3115449033131
 30
0.0
 11
-47.93096272917228
 21
841.4474394571536
 31
0.0
  0
LINE
  5
103
330
1F
100
AcDbEntity
  8
0
  6
Continuous
 62
     7
100
AcDbLine
 10
-47.40063264328234
 20
841.1404978784262
 30
0.0
 11
-47.93096272917228
 21
841.4474394571536
 31
0.0
  0
LINE
  5
104
330
1F
100
AcDbEntity
  8
0
  6
Continuous
 62
     7
100
AcDbLine
 10
-119.2612270396025
 20
701.6621683624605
 30
0.0
 11
-45.01501501501497
 21
744.6339893842891
 31
0.0
  0
LINE
  5
105
330
1F
100
AcDbEntity
  8
0
  6
Continuous
 62
     7
100
AcDbLine
 10
-50.21180110840561
 20
745.9876417560805
 30
0.0
 11
-49.9643137349903
 21
745.8444023526744
 31
0.0
  0
LINE
  5
106
330
1F
100
AcDbEntity
  8
0
  6
Continuous
 62
     7
100
AcDbLine
 10
-50.09911277174632
 20
745.3407496466057
 30
0.0
 11
-50.20478701602934
 21
745.401911214154
 31
0.0
  0
LINE
  5
107
330
1F
100
AcDbEntity
  8
0
  6
Continuous
 62
     7
100
AcDbLine
 10
-51.55575274099061
 20
744.1714884167768
 30
0.0
 11
-49.78798578802429
 21
745.1946270125346
 31
0.0
  0
LINE
  5
108
330
1F
100
AcDbEntity
  8
0
  6
Continuous
 62
     7
100
AcDbLine
 10
-50.41023975546841
 20
745.6091954157732
 30
0.0
 11
-50.93349877354643
 21
745.306346391429
 31
0.0
  0
LINE
  5
109
330
1F
100
AcDbEntity
  8
0
  6
Continuous
 62
     7
100
AcDbLine
 10
-50.93349877354643
 20
745.306346391429
 30
0.0
 11
-50.93349877354643
 21
745.4286695265256
 31
0.0
  0
LINE
  5
10A
330
1F
100
AcDbEntity
  8
0
  6
Continuous
 62
     7
100
AcDbLine
 10
-50.93349877354643
 20
745.4286695265256
 30
0.0
 11
-50.41023975546841
 21
745.7315185508699
 31
0.0
  0
LINE
  5
10B
330
1F
100
AcDbEntity
  8
0
  6
Continuous
 62
     7
100
AcDbLine
 10
-50.41023975546841
 20
745.7315185508699
 30
0.0
 11
-50.41023975546841
 21
745.6091954157732
 31
0.0
  0
LINE
  5
10C
330
1F
100
AcDbEntity
  8
0
  6
Continuous
 62
     7
100
AcDbLine
 10
-50.41023975546841
 20
745.6091954157732
 30
0.0
 11
-50.51591399975149
 21
745.6703569833215
 31
0.0
  0
LINE
  5
10D
330
1F
100
AcDbEntity
  8
0
  6
Continuous
 62
     7
100
AcDbLine
 10
-50.61883625591844
 20
743.6943924133899
 30
0.0
 11
-50.7249022730964
 21
743.7557807291354
 31
0.0
  0
LINE
  5
10E
330
1F
100
AcDbEntity
  8
0
  6
Continuous
 62
     7
100
AcDbLine
 10
-50.61883625591844
 20
743.6943924133899
 30
0.0
 11
-50.72490227309646
 21
743.6330040976444
 31
0.0
  0
LINE
  5
10F
330
1F
100
AcDbEntity
  8
0
  6
Continuous
 62
     7
100
AcDbLine
 10
-51.24462575726852
 20
744.6777558365546
 30
0.0
 11
-51.24462575726852
 21
744.8000789716513
 31
0.0
  0
LINE
  5
110
330
1F
100
AcDbEntity
  8
0
  6
Continuous
 62
     7
100
AcDbLine
 10
-51.55575274099061
 20
744.0491652816802
 30
0.0
 11
-51.55575274099061
 21
744.1714884167768
 31
0.0
  0
LINE
  5
111
330
1F
100
AcDbEntity
  8
0
  6
Continuous
 62
     7
100
AcDbLine
 10
-50.72490227309646
 20
744.5300404216864
 30
0.0
 11
-51.55575274099061
 21
744.0491652816802
 31
0.0
  0
LINE
  5
112
330
1F
100
AcDbEntity
  8
0
  6
Continuous
 62
     7
100
AcDbLine
 10
-50.72490227309646
 20
744.5300404216864
 30
0.0
 11
-50.83057651737948
 21
744.5912019892347
 31
0.0
  0
LINE
  5
113
330
1F
100
AcDbEntity
  8
0
  6
Continuous
 62
     7
100
AcDbLine
 10
-50.72490227309646
 20
743.6330040976444
 30
0.0
 11
-50.72490227309646
 21
744.5300404216864
 31
0.0
  0
LINE
  5
114
330
1F
100
AcDbEntity
  8
0
  6
Continuous
 62
     7
100
AcDbLine
 10
-50.61883625591844
 20
744.5914287374318
 30
0.0
 11
-50.72451050020152
 21
744.6525903049802
 31
0.0
  0
LINE
  5
115
330
1F
100
AcDbEntity
  8
0
  6
Continuous
 62
     7
100
AcDbLine
 10
-50.61883625591844
 20
744.5914287374318
 30
0.0
 11
-50.61883625591844
 21
743.6943924133899
 31
0.0
  0
LINE
  5
116
330
1F
100
AcDbEntity
  8
0
  6
Continuous
 62
     7
100
AcDbLine
 10
-51.6269121674398
 20
743.5426293449466
 30
0.0
 11
-51.3794247940246
 21
743.3993899415404
 31
0.0
  0
LINE
  5
117
330
1F
100
AcDbEntity
  8
0
  6
Continuous
 62
     7
100
AcDbLine
 10
-51.24462575726852
 20
744.8000789716513
 30
0.0
 11
-50.09911277174632
 21
745.4630727817023
 31
0.0
  0
LINE
  5
118
330
1F
100
AcDbEntity
  8
0
  6
Continuous
 62
     7
100
AcDbLine
 10
-50.09911277174632
 20
745.3407496466057
 30
0.0
 11
-51.24462575726852
 21
744.6777558365546
 31
0.0
  0
LINE
  5
119
330
1F
100
AcDbEntity
  8
0
  6
Continuous
 62
     7
100
AcDbLine
 10
-50.09911277174632
 20
745.4630727817023
 30
0.0
 11
-50.09911277174632
 21
745.3407496466057
 31
0.0
  0
LINE
  5
11A
330
1F
100
AcDbEntity
  8
0
  6
Continuous
 62
     7
100
AcDbLine
 10
-49.78798578802429
 20
745.1946270125346
 30
0.0
 11
-49.78798578802429
 21
745.072303877438
 31
0.0
  0
LINE
  5
11B
330
1F
100
AcDbEntity
  8
0
  6
Continuous
 62
     7
100
AcDbLine
 10
-49.78798578802429
 20
745.072303877438
 30
0.0
 11
-50.61883625591844
 21
744.5914287374318
 31
0.0
  0
LINE
  5
11C
330
1F
100
AcDbEntity
  8
0
  6
Continuous
 62
     7
100
AcDbLine
 10
-49.78798578802429
 20
745.072303877438
 30
0.0
 11
-49.89366003230731
 21
745.1334654449863
 31
0.0
  0
LINE
  5
11D
330
1F
100
AcDbEntity
  8
0
  6
Continuous
 62
     7
100
AcDbLine
 10
-47.4023681597568
 20
744.7103560530469
 30
0.0
 11
-48.52531753912132
 21
745.3554893331742
 31
0.0
  0
LINE
  5
11E
330
1F
100
AcDbEntity
  8
0
  6
Continuous
 62
     7
100
AcDbLine
 10
-48.52563264328234
 20
745.3534028782237
 30
0.0
 11
-46.87203807386692
 21
744.4034144743196
 31
0.0
  0
LINE
  5
11F
330
1F
100
AcDbEntity
  8
0
  6
Continuous
 62
     7
100
AcDbLine
 10
-47.4023681597568
 20
744.7103560530469
 30
0.0
 11
-46.87203807386692
 21
744.4034144743196
 31
0.0
  0
LINE
  5
120
330
1F
100
AcDbEntity
  8
0
  6
Continuous
 62
     7
100
AcDbLine
 10
-119.7915571254924
 20
701.9691099411879
 30
0.0
 11
-119.2612270396025
 21
701.6621683624605
 31
0.0
  0
LINE
  5
121
330
1F
100
AcDbEntity
  8
0
  6
Continuous
 62
     7
100
AcDbLine
 10
-45.01501501501497
 20
744.6339893842891
 30
0.0
 11
-45.01501501501497
 21
846.56993529815
 31
0.0
  0
LINE
  5
122
330
1F
100
AcDbEntity
  8
0
  6
Continuous
 62
     7
100
AcDbLine
 10
-45.74703807386698
 20
746.3519686644006
 30
0.0
 11
-47.40063264328234
 21
747.3019570683048
 31
0.0
  0
LINE
  5
123
330
1F
100
AcDbEntity
  8
1
  6
DOT_CENTER
 62
     7
100
AcDbLine
 10
-280.996372759331
 20
519.1191596417437
 30
0.0
 11
-280.996372759331
 21
509.3991596417437
 31
0.0
  0
LINE
  5
124
330
1F
100
AcDbEntity
  8
1
  6
DOT_CENTER
 62
     7
100
AcDbLine
 10
-276.136372759331
 20
514.2591596417437
 30
0.0
 11
-285.8563727593311
 21
514.2591596417437
 31
0.0
  0
LINE
  5
125
330
1F
100
AcDbEntity
  8
1
  6
DOT_CENTER
 62
     7
100
AcDbLine
 10
-260.996372759331
 20
522.6591596417439
 30
0.0
 11
-260.996372759331
 21
509.8591596417436
 31
0.0
  0
LINE
  5
126
330
1F
100
AcDbEntity
  8
1
  6
DOT_CENTER
 62
     7
100
AcDbLine
 10
-254.5963727593309
 20
516.2591596417437
 30
0.0
 11
-267.3963727593313
 21
516.2591596417437
 31
0.0
  0
LINE
  5
127
330
1F
100
AcDbEntity
  8
1
  6
DOT_CENTER
 62
     7
100
AcDbLine
 10
-438.9963727593311
 20
519.1191596417437
 30
0.0
 11
-438.9963727593311
 21
509.3991596417437
 31
0.0
  0
LINE
  5
128
330
1F
100
AcDbEntity
  8
1
  6
DOT_CENTER
 62
     7
100
AcDbLine
 10
-434.136372759331
 20
514.2591596417437
 30
0.0
 11
-443.8563727593311
 21
514.2591596417437
 31
0.0
  0
LINE
  5
129
330
1F
100
AcDbEntity
  8
1
  6
DOT_CENTER
 62
     7
100
AcDbLine
 10
-458.9963727593311
 20
522.6591596417439
 30
0.0
 11
-458.9963727593311
 21
509.8591596417436
 31
0.0
  0
LINE
  5
12A
330
1F
100
AcDbEntity
  8
1
  6
DOT_CENTER
 62
     7
100
AcDbLine
 10
-452.5963727593309
 20
516.2591596417437
 30
0.0
 11
-465.3963727593311
 21
516.2591596417437
 31
0.0
  0
LINE
  5
12B
330
1F
100
AcDbEntity
  8
1
  6
DOT_CENTER
 62
     7
100
AcDbLine
 10
-260.996372759331
 20
284.6591596417439
 30
0.0
 11
-260.996372759331
 21
271.8591596417438
 31
0.0
  0
LINE
  5
12C
330
1F
100
AcDbEntity
  8
1
  6
DOT_CENTER
 62
     7
100
AcDbLine
 10
-254.596372759331
 20
278.2591596417438
 30
0.0
 11
-267.396372759331
 21
278.2591596417438
 31
0.0
  0
LINE
  5
12D
330
1F
100
AcDbEntity
  8
1
  6
DOT_CENTER
 62
     7
100
AcDbLine
 10
-280.996372759331
 20
285.1191596417438
 30
0.0
 11
-280.996372759331
 21
275.3991596417439
 31
0.0
  0
LINE
  5
12E
330
1F
100
AcDbEntity
  8
1
  6
DOT_CENTER
 62
     7
100
AcDbLine
 10
-276.136372759331
 20
280.2591596417438
 30
0.0
 11
-285.8563727593311
 21
280.2591596417438
 31
0.0
  0
LINE
  5
12F
330
1F
100
AcDbEntity
  8
1
  6
DOT_CENTER
 62
     7
100
AcDbLine
 10
-458.9963727593311
 20
284.6591596417438
 30
0.0
 11
-458.9963727593311
 21
271.8591596417438
 31
0.0
  0
LINE
  5
130
330
1F
100
AcDbEntity
  8
1
  6
DOT_CENTER
 62
     7
100
AcDbLine
 10
-452.5963727593311
 20
278.2591596417438
 30
0.0
 11
-465.396372759331
 21
278.2591596417438
 31
0.0
  0
LINE
  5
131
330
1F
100
AcDbEntity
  8
1
  6
DOT_CENTER
 62
     7
100
AcDbLine
 10
-438.9963727593311
 20
285.1191596417439
 30
0.0
 11
-438.9963727593311
 21
275.3991596417437
 31
0.0
  0
LINE
  5
132
330
1F
100
AcDbEntity
  8
1
  6
DOT_CENTER
 62
     7
100
AcDbLine
 10
-434.136372759331
 20
280.2591596417437
 30
0.0
 11
-443.8563727593311
 21
280.2591596417437
 31
0.0
  0
LINE
  5
133
330
1F
100
AcDbEntity
  8
1
  6
Continuous
 62
     7
100
AcDbLine
 10
-464.9963727593311
 20
272.2591596417438
 30
0.0
 11
-464.9963727593311
 21
522.2591596417437
 31
0.0
  0
LINE
  5
134
330
1F
100
AcDbEntity
  8
1
  6
Continuous
 62
     7
100
AcDbLine
 10
-254.996372759331
 20
522.2591596417437
 30
0.0
 11
-254.996372759331
 21
272.2591596417437
 31
0.0
  0
LINE
  5
135
330
1F
100
AcDbEntity
  8
1
  6
Continuous
 62
     7
100
AcDbLine
 10
-268.5932208898449
 20
280.2591596417437
 30
0.0
 11
-270.9963727593311
 21
280.2591596417437
 31
0.0
  0
LINE
  5
136
330
1F
100
AcDbEntity
  8
1
  6
Continuous
 62
     7
100
AcDbLine
 10
-269.4412835644133
 20
281.3192379849543
 30
0.0
 11
-272.5636961389604
 21
281.3192379849543
 31
0.0
  0
LINE
  5
137
330
1F
100
AcDbEntity
  8
1
  6
Continuous
 62
     7
100
AcDbLine
 10
-270.2893462389817
 20
282.3793163281648
 30
0.0
 11
-271.7156334643922
 21
282.3793163281648
 31
0.0
  0
LINE
  5
138
330
1F
100
AcDbEntity
  8
1
  6
Continuous
 62
     7
100
AcDbLine
 10
-270.9963727593311
 20
278.0005639099681
 30
0.0
 11
-270.9963727593311
 21
280.2591596417437
 31
0.0
  0
LINE
  5
139
330
1F
100
AcDbEntity
  8
1
  6
Continuous
 62
     7
100
AcDbLine
 10
-270.9963727593311
 20
280.2591596417437
 30
0.0
 11
-273.4117588135287
 21
280.2591596417437
 31
0.0
  0
LINE
  5
13A
330
1F
100
AcDbEntity
  8
1
  6
Continuous
 62
     7
100
AcDbLine
 10
-448.9963727593309
 20
514.2591596417437
 30
0.0
 11
-446.5809867051333
 21
514.2591596417437
 31
0.0
  0
LINE
  5
13B
330
1F
100
AcDbEntity
  8
1
  6
Continuous
 62
     7
100
AcDbLine
 10
-448.9963727593309
 20
516.5177553735193
 30
0.0
 11
-448.9963727593309
 21
514.2591596417437
 31
0.0
  0
LINE
  5
13C
330
1F
100
AcDbEntity
  8
1
  6
Continuous
 62
     7
100
AcDbLine
 10
-449.7033992796804
 20
512.1390029553227
 30
0.0
 11
-448.2771120542699
 21
512.1390029553227
 31
0.0
  0
LINE
  5
13D
330
1F
100
AcDbEntity
  8
1
  6
Continuous
 62
     7
100
AcDbLine
 10
-450.5514619542488
 20
513.1990812985331
 30
0.0
 11
-447.4290493797017
 21
513.1990812985331
 31
0.0
  0
LINE
  5
13E
330
1F
100
AcDbEntity
  8
1
  6
Continuous
 62
     7
100
AcDbLine
 10
-451.3995246288172
 20
514.2591596417437
 30
0.0
 11
-448.9963727593309
 21
514.2591596417437
 31
0.0
  0
LINE
  5
13F
330
1F
100
AcDbEntity
  8
1
  6
Continuous
 62
     7
100
AcDbLine
 10
-464.9963727593311
 20
522.2591596417437
 30
0.0
 11
-254.996372759331
 21
522.2591596417437
 31
0.0
  0
LINE
  5
140
330
1F
100
AcDbEntity
  8
1
  6
Continuous
 62
     7
100
AcDbLine
 10
-254.996372759331
 20
272.2591596417437
 30
0.0
 11
-464.9963727593311
 21
272.2591596417438
 31
0.0
  0
LINE
  5
141
330
1F
100
AcDbEntity
  8
1
  6
Continuous
 62
     7
100
AcDbLine
 10
-459.743918368395
 20
520.1886857661472
 30
0.0
 11
-458.9963727593311
 21
519.4411401570832
 31
0.0
  0
LINE
  5
142
330
1F
100
AcDbEntity
  8
1
  6
Continuous
 62
     7
100
AcDbLine
 10
-458.9963727593311
 20
519.4411401570832
 30
0.0
 11
-455.0668466349276
 21
515.5116140326797
 31
0.0
  0
LINE
  5
143
330
1F
100
AcDbEntity
  8
1
  6
Continuous
 62
     7
100
AcDbLine
 10
-458.2488271502671
 20
512.3296335173404
 30
0.0
 11
-462.9258988837345
 21
517.0067052508077
 31
0.0
  0
LINE
  5
144
330
1F
100
AcDbEntity
  8
1
  6
Continuous
 62
     7
100
AcDbLine
 10
-257.0668466349276
 20
517.0067052508077
 30
0.0
 11
-261.743918368395
 21
512.3296335173404
 31
0.0
  0
LINE
  5
145
330
1F
100
AcDbEntity
  8
1
  6
Continuous
 62
     7
100
AcDbLine
 10
-264.9258988837346
 20
515.5116140326797
 30
0.0
 11
-260.996372759331
 21
519.4411401570832
 31
0.0
  0
LINE
  5
146
330
1F
100
AcDbEntity
  8
1
  6
Continuous
 62
     7
100
AcDbLine
 10
-260.996372759331
 20
519.4411401570832
 30
0.0
 11
-260.248827150267
 21
520.1886857661472
 31
0.0
  0
LINE
  5
147
330
1F
100
AcDbEntity
  8
1
  6
Continuous
 62
     7
100
AcDbLine
 10
-260.248827150267
 20
274.3296335173403
 30
0.0
 11
-260.996372759331
 21
275.0771791264043
 31
0.0
  0
LINE
  5
148
330
1F
100
AcDbEntity
  8
1
  6
Continuous
 62
     7
100
AcDbLine
 10
-260.996372759331
 20
275.0771791264043
 30
0.0
 11
-264.9258988837346
 21
279.0067052508078
 31
0.0
  0
LINE
  5
149
330
1F
100
AcDbEntity
  8
1
  6
Continuous
 62
     7
100
AcDbLine
 10
-261.743918368395
 20
282.1886857661472
 30
0.0
 11
-257.0668466349276
 21
277.5116140326797
 31
0.0
  0
LINE
  5
14A
330
1F
100
AcDbEntity
  8
1
  6
Continuous
 62
     7
100
AcDbLine
 10
-462.9258988837345
 20
277.5116140326797
 30
0.0
 11
-458.2488271502671
 21
282.1886857661472
 31
0.0
  0
LINE
  5
14B
330
1F
100
AcDbEntity
  8
1
  6
Continuous
 62
     7
100
AcDbLine
 10
-455.0668466349276
 20
279.0067052508078
 30
0.0
 11
-458.9963727593311
 21
275.0771791264043
 31
0.0
  0
LINE
  5
14C
330
1F
100
AcDbEntity
  8
1
  6
Continuous
 62
     7
100
AcDbLine
 10
-458.9963727593311
 20
275.0771791264043
 30
0.0
 11
-459.743918368395
 21
274.3296335173403
 31
0.0
  0
LINE
  5
14D
330
1F
100
AcDbEntity
  8
1
  6
Continuous
 62
     7
100
AcDbLine
 10
-254.996372759331
 20
643.6591596417438
 30
0.0
 11
-464.9963727593309
 21
643.6591596417438
 31
0.0
  0
LINE
  5
14E
330
1F
100
AcDbEntity
  8
1
  6
Continuous
 62
     7
100
AcDbLine
 10
-464.9963727593309
 20
643.6591596417438
 30
0.0
 11
-464.9963727593309
 21
645.1591596417438
 31
0.0
  0
LINE
  5
14F
330
1F
100
AcDbEntity
  8
1
  6
Continuous
 62
     7
100
AcDbLine
 10
-464.9963727593309
 20
645.1591596417438
 30
0.0
 11
-254.996372759331
 21
645.1591596417438
 31
0.0
  0
LINE
  5
150
330
1F
100
AcDbEntity
  8
1
  6
Continuous
 62
     7
100
AcDbLine
 10
-254.996372759331
 20
645.1591596417438
 30
0.0
 11
-254.996372759331
 21
643.6591596417438
 31
0.0
  0
LINE
  5
151
330
1F
100
AcDbEntity
  8
1
  6
DOT_CENTER
 62
     7
100
AcDbLine
 10
-458.9963727593309
 20
647.9903551758218
 30
0.0
 11
-458.9963727593309
 21
640.8903551758217
 31
0.0
  0
LINE
  5
152
330
1F
100
AcDbEntity
  8
1
  6
DOT_CENTER
 62
     7
100
AcDbLine
 10
-438.9963727593309
 20
647.9903551758218
 30
0.0
 11
-438.9963727593309
 21
640.8903551758217
 31
0.0
  0
LINE
  5
153
330
1F
100
AcDbEntity
  8
1
  6
DOT_CENTER
 62
     7
100
AcDbLine
 10
-280.996372759331
 20
647.9903551758218
 30
0.0
 11
-280.996372759331
 21
640.8903551758217
 31
0.0
  0
LINE
  5
154
330
1F
100
AcDbEntity
  8
1
  6
DOT_CENTER
 62
     7
100
AcDbLine
 10
-260.996372759331
 20
647.9903551758218
 30
0.0
 11
-260.996372759331
 21
640.8903551758217
 31
0.0
  0
ARC
  5
155
330
1F
100
AcDbEntity
  8
1
  6
Continuous
 62
     7
100
AcDbCircle
 10
-458.9963727593311
 20
516.2591596417437
 30
0.0
 40
3.999999999999959
100
AcDbArc
 50
100.771133672186
 51
135.0
  0
ARC
  5
156
330
1F
100
AcDbEntity
  8
1
  6
Continuous
 62
     7
100
AcDbCircle
 10
-458.9963727593311
 20
516.2591596417437
 30
0.0
 40
3.999999999999869
100
AcDbArc
 50
280.7711336721879
 51
349.2288663278127
  0
ARC
  5
157
330
1F
100
AcDbEntity
  8
1
  6
Continuous
 62
     7
100
AcDbCircle
 10
-458.9963727593311
 20
516.2591596417437
 30
0.0
 40
4.000000000000032
100
AcDbArc
 50
135.0
 51
169.2288663278123
  0
ARC
  5
158
330
1F
100
AcDbEntity
  8
1
  6
Continuous
 62
     7
100
AcDbCircle
 10
-260.996372759331
 20
516.2591596417437
 30
0.0
 40
3.99999999999998
100
AcDbArc
 50
10.77113367218761
 51
79.2288663278124
  0
ARC
  5
159
330
1F
100
AcDbEntity
  8
1
  6
Continuous
 62
     7
100
AcDbCircle
 10
-260.996372759331
 20
516.2591596417437
 30
0.0
 40
4.000000000000147
100
AcDbArc
 50
190.7711336721871
 51
259.2288663278121
  0
ARC
  5
15A
330
1F
100
AcDbEntity
  8
1
  6
Continuous
 62
     7
100
AcDbCircle
 10
-260.996372759331
 20
278.2591596417438
 30
0.0
 40
4.000000000000036
100
AcDbArc
 50
280.7711336721874
 51
315.0
  0
ARC
  5
15B
330
1F
100
AcDbEntity
  8
1
  6
Continuous
 62
     7
100
AcDbCircle
 10
-260.996372759331
 20
278.2591596417438
 30
0.0
 40
3.99999999999998
100
AcDbArc
 50
100.7711336721876
 51
169.2288663278129
  0
ARC
  5
15C
330
1F
100
AcDbEntity
  8
1
  6
Continuous
 62
     7
100
AcDbCircle
 10
-260.996372759331
 20
278.2591596417438
 30
0.0
 40
4.000000000000032
100
AcDbArc
 50
315.0
 51
349.2288663278108
  0
ARC
  5
15D
330
1F
100
AcDbEntity
  8
1
  6
Continuous
 62
     7
100
AcDbCircle
 10
-458.9963727593311
 20
278.2591596417438
 30
0.0
 40
3.999999999999946
100
AcDbArc
 50
190.7711336721894
 51
225.0
  0
ARC
  5
15E
330
1F
100
AcDbEntity
  8
1
  6
Continuous
 62
     7
100
AcDbCircle
 10
-458.9963727593311
 20
278.2591596417438
 30
0.0
 40
4.000000000000091
100
AcDbArc
 50
10.77113367218731
 51
79.2288663278124
  0
ARC
  5
15F
330
1F
100
AcDbEntity
  8
1
  6
Continuous
 62
     7
100
AcDbCircle
 10
-458.9963727593311
 20
278.2591596417438
 30
0.0
 40
4.000000000000032
100
AcDbArc
 50
225.0
 51
259.2288663278142
  0
CIRCLE
  5
160
330
1F
100
AcDbEntity
  8
1
  6
Continuous
 62
     7
100
AcDbCircle
 10
-438.9963727593311
 20
280.2591596417437
 30
0.0
 40
2.599999999999966
  0
CIRCLE
  5
161
330
1F
100
AcDbEntity
  8
1
  6
Continuous
 62
     7
100
AcDbCircle
 10
-438.9963727593311
 20
514.2591596417437
 30
0.0
 40
2.599999999999966
  0
CIRCLE
  5
162
330
1F
100
AcDbEntity
  8
1
  6
Continuous
 62
     7
100
AcDbCircle
 10
-280.996372759331
 20
514.2591596417437
 30
0.0
 40
2.60000000000008
  0
CIRCLE
  5
163
330
1F
100
AcDbEntity
  8
1
  6
Continuous
 62
     7
100
AcDbCircle
 10
-271.0024898516868
 20
280.2652767340995
 30
0.0
 40
3.011586202302624
  0
CIRCLE
  5
164
330
1F
100
AcDbEntity
  8
1
  6
Continuous
 62
     7
100
AcDbCircle
 10
-448.9902556669753
 20
514.2530425493877
 30
0.0
 40
3.011586202302738
  0
CIRCLE
  5
165
330
1F
100
AcDbEntity
  8
1
  6
Continuous
 62
     7
100
AcDbCircle
 10
-280.996372759331
 20
280.2591596417438
 30
0.0
 40
2.600000000000023
  0
SPLINE
  5
166
330
1F
100
AcDbEntity
  8
0
  6
Continuous
 62
     7
100
AcDbSpline
210
0.0
220
0.0
230
1.0
 70
     8
 71
     3
 72
    11
 73
     7
 74
     5
 42
0.000000001
 43
0.0000000001
 44
0.00000001
 40
0.0
 40
0.0
 40
0.0
 40
0.0
 40
0.1725011129695844
 40
0.3523006040649957
 40
0.5452876412112925
 40
0.7552217411594513
 40
0.7552217411594513
 40
0.7552217411594513
 40
0.7552217411594513
 10
-116.1380581586735
 20
707.0673796172734
 30
0.0
 10
-116.0903576104884
 20
707.0346824228333
 30
0.0
 10
-115.99293835288
 20
706.9679046312813
 30
0.0
 10
-115.8816687187696
 20
706.8209349566191
 30
0.0
 10
-115.7959259113147
 20
706.6451613169404
 30
0.0
 10
-115.7661326134383
 20
706.5137590042443
 30
0.0
 10
-115.7506094113352
 20
706.4452944225804
 30
0.0
 11
-116.1380581586735
 21
707.0673796172734
 31
0.0
 11
-116.0010772950674
 21
706.9625326925138
 31
0.0
 11
-115.8892953183245
 21
706.8217042592448
 31
0.0
 11
-115.8051856736963
 21
706.6480103763196
 31
0.0
 11
-115.7506094113352
 21
706.4452944225804
 31
0.0
  0
SPLINE
  5
167
330
1F
100
AcDbEntity
  8
0
  6
Continuous
 62
     7
100
AcDbSpline
210
0.0
220
0.0
230
1.0
 70
     8
 71
     3
 72
    11
 73
     7
 74
     5
 42
0.000000001
 43
0.0000000001
 44
0.00000001
 40
0.0
 40
0.0
 40
0.0
 40
0.0
 40
0.1725011129696648
 40
0.3523006040649517
 40
0.5452876412113508
 40
0.7552217411595207
 40
0.7552217411595207
 40
0.7552217411595207
 40
0.7552217411595207
 10
-118.1417552334123
 20
703.6054151413316
 30
0.0
 10
-118.1894557815974
 20
703.6381123357719
 30
0.0
 10
-118.2868750392057
 20
703.7048901273237
 30
0.0
 10
-118.3981446733163
 20
703.8518598019864
 30
0.0
 10
-118.483887480771
 20
704.0276334416646
 30
0.0
 10
-118.5136807786475
 20
704.1590357543607
 30
0.0
 10
-118.5292039807506
 20
704.2275003360247
 30
0.0
 11
-118.1417552334123
 21
703.6054151413316
 31
0.0
 11
-118.2787360970184
 21
703.7102620660913
 31
0.0
 11
-118.3905180737613
 21
703.8510904993602
 31
0.0
 11
-118.4746277183894
 21
704.0247843822856
 31
0.0
 11
-118.5292039807506
 21
704.2275003360247
 31
0.0
  0
SPLINE
  5
168
330
1F
100
AcDbEntity
  8
0
  6
Continuous
 62
     7
100
AcDbSpline
210
0.0
220
0.0
230
1.0
 70
     8
 71
     3
 72
     9
 73
     5
 74
     3
 42
0.000000001
 43
0.0000000001
 44
0.00000001
 40
0.0
 40
0.0
 40
0.0
 40
0.0
 40
0.2092522910078133
 40
0.4385519700762505
 40
0.4385519700762505
 40
0.4385519700762505
 40
0.4385519700762505
 10
-116.4392220212029
 20
707.1586520653068
 30
0.0
 10
-116.4037124532876
 20
707.0980948804283
 30
0.0
 10
-116.3292913460212
 20
706.9711788292445
 30
0.0
 10
-116.2975405778977
 20
706.8274076681184
 30
0.0
 10
-116.2809394972251
 20
706.7522360013078
 30
0.0
 11
-116.4392220212029
 21
707.1586520653068
 31
0.0
 11
-116.3424079137675
 21
706.9731431697483
 31
0.0
 11
-116.2809394972251
 21
706.7522360013078
 31
0.0
  0
SPLINE
  5
169
330
1F
100
AcDbEntity
  8
0
  6
Continuous
 62
     7
100
AcDbSpline
210
0.0
220
0.0
230
1.0
 70
     8
 71
     3
 72
    11
 73
     7
 74
     5
 42
0.000000001
 43
0.0000000001
 44
0.00000001
 40
0.0
 40
0.0
 40
0.0
 40
0.0
 40
0.2116323332617769
 40
0.4060580662570529
 40
0.5870720112164458
 40
0.760654822900006
 40
0.760654822900006
 40
0.760654822900006
 40
0.760654822900006
 10
-116.8756094113352
 20
707.0916057821843
 30
0.0
 10
-116.8080482789781
 20
707.1126797743389
 30
0.0
 10
-116.6784190154444
 20
707.1531143402023
 30
0.0
 10
-116.4818757945293
 20
707.167066104125
 30
0.0
 10
-116.2976730698215
 20
707.1440743231321
 30
0.0
 10
-116.1905145688847
 20
707.0925848426706
 30
0.0
 10
-116.1380581586735
 20
707.0673796172734
 30
0.0
 11
-116.8756094113352
 21
707.0916057821843
 31
0.0
 11
-116.671211144709
 21
707.1464655403773
 31
0.0
 11
-116.4773127451537
 21
707.1607755749246
 31
0.0
 11
-116.2982580109136
 21
707.13421524036
 31
0.0
 11
-116.1380581586735
 21
707.0673796172734
 31
0.0
  0
SPLINE
  5
16A
330
1F
100
AcDbEntity
  8
0
  6
Continuous
 62
     7
100
AcDbSpline
210
0.0
220
0.0
230
1.0
 70
     8
 71
     3
 72
     9
 73
     5
 74
     3
 42
0.000000001
 43
0.0000000001
 44
0.00000001
 40
0.0
 40
0.0
 40
0.0
 40
0.0
 40
0.2322640217093145
 40
0.4439839219677432
 40
0.4439839219677432
 40
0.4439839219677432
 40
0.4439839219677432
 10
-117.9345340666405
 20
703.8881305551482
 30
0.0
 10
-118.0088561646596
 20
703.8644983513881
 30
0.0
 10
-118.1509264569931
 20
703.8193242692691
 30
0.0
 10
-118.2998873736875
 20
703.8205159791743
 30
0.0
 10
-118.3709214567728
 20
703.8210842720257
 30
0.0
 11
-117.9345340666405
 21
703.8881305551482
 31
0.0
 11
-118.1593861300031
 21
703.8299229450565
 31
0.0
 11
-118.3709214567728
 21
703.8210842720257
 31
0.0
  0
SPLINE
  5
16B
330
1F
100
AcDbEntity
  8
0
  6
Continuous
 62
     7
100
AcDbSpline
210
0.0
220
0.0
230
1.0
 70
     8
 71
     3
 72
    19
 73
    15
 74
    13
 42
0.000000001
 43
0.0000000001
 44
0.00000001
 40
0.0
 40
0.0
 40
0.0
 40
0.0
 40
0.1990104244666564
 40
0.42161650115387
 40
0.680043903489701
 40
0.9744608823692693
 40
1.296815671772762
 40
1.634248522954802
 40
1.971681374136611
 40
2.294036163540242
 40
2.588453142419852
 40
2.846880544755693
 40
3.069486621442841
 40
3.268497045909423
 40
3.268497045909423
 40
3.268497045909423
 40
3.268497045909423
 10
-53.55620162115002
 20
839.1128027856469
 30
0.0
 10
-53.50324926331627
 20
839.071164521268
 30
0.0
 10
-53.3910662698967
 20
838.9829511437365
 30
0.0
 10
-53.30514302663873
 20
838.7638438249376
 30
0.0
 10
-53.27776589051514
 20
838.5058982371096
 30
0.0
 10
-53.31301073691144
 20
838.2137872971128
 30
0.0
 10
-53.40604348379937
 20
837.9083647162511
 30
0.0
 10
-53.55137647412737
 20
837.60797274791
 30
0.0
 10
-53.73944605645868
 20
837.3323156331408
 30
0.0
 10
-53.95793099109861
 20
837.0995015909754
 30
0.0
 10
-54.19366055001217
 20
836.923426108533
 30
0.0
 10
-54.43096076434379
 20
836.8186690460465
 30
0.0
 10
-54.6637493935622
 20
836.7840240609908
 30
0.0
 10
-54.79612235091317
 20
836.8373534539214
 30
0.0
 10
-54.85860471973018
 20
836.8625258762846
 30
0.0
 11
-53.55620162115002
 21
839.1128027856469
 31
0.0
 11
-53.41047016878248
 21
838.9772760549496
 31
0.0
 11
-53.31904797302917
 21
838.774309430366
 31
0.0
 11
-53.28816617344393
 21
838.517733837095
 31
0.0
 11
-53.31992838264648
 21
838.2250351559711
 31
0.0
 11
-53.4121709891033
 21
837.9161599231409
 31
0.0
 11
-53.55860694495618
 21
837.6121575607092
 31
0.0
 11
-53.74925762554714
 21
837.3337455575185
 31
0.0
 11
-53.97112993193662
 21
837.0998967012899
 31
0.0
 11
-54.20910399076095
 21
836.9265481991569
 31
0.0
 11
-54.44696214236717
 21
836.8255124613089
 31
0.0
 11
-54.66849462254333
 21
836.8036760513893
 31
0.0
 11
-54.85860471973018
 21
836.8625258762846
 31
0.0
  0
SPLINE
  5
16C
330
1F
100
AcDbEntity
  8
0
  6
Continuous
 62
     7
100
AcDbSpline
210
0.0
220
0.0
230
1.0
 70
     8
 71
     3
 72
    17
 73
    13
 74
    11
 42
0.000000001
 43
0.0000000001
 44
0.00000001
 40
0.0
 40
0.0
 40
0.0
 40
0.0
 40
0.2123050734188036
 40
0.453393150136067
 40
0.7206260226397928
 40
1.00729878476594
 40
1.304266032389265
 40
1.601233280012648
 40
1.887906042138709
 40
2.155138914642454
 40
2.396226991359579
 40
2.608532064778422
 40
2.608532064778422
 40
2.608532064778422
 40
2.608532064778422
 10
-53.87823779744298
 20
839.1680122929836
 30
0.0
 10
-53.85763897053442
 20
839.0999361205113
 30
0.0
 10
-53.81364867716169
 20
838.954554427083
 30
0.0
 10
-53.81707481729637
 20
838.7112269585014
 30
0.0
 10
-53.86187441018319
 20
838.4495901693169
 30
0.0
 10
-53.95290001242904
 20
838.1797015991642
 30
0.0
 10
-54.0832988547841
 20
837.9158359063902
 30
0.0
 10
-54.24713627402193
 20
837.6713236122864
 30
0.0
 10
-54.43580984597737
 20
837.4579512058963
 30
0.0
 10
-54.64035584801945
 20
837.2887715793859
 30
0.0
 10
-54.84963617805151
 20
837.164587285434
 30
0.0
 10
-54.99760909150931
 20
837.1303090185883
 30
0.0
 10
-55.06689862932711
 20
837.1142579476752
 30
0.0
 11
-53.87823779744298
 21
839.1680122929836
 31
0.0
 11
-53.82655954398223
 21
838.9620928853798
 31
0.0
 11
-53.8228504175992
 21
838.7210333424476
 31
0.0
 11
-53.86730612297819
 21
838.4575241429171
 31
0.0
 11
-53.9575858344779
 21
838.1854380438043
 31
0.0
 11
-54.0889371102614
 21
837.9190991854001
 31
0.0
 11
-54.25444453470959
 21
837.6725290379804
 31
0.0
 11
-54.44539512956592
 21
837.4587086882406
 31
0.0
 11
-54.6517359892668
 21
837.288894502744
 31
0.0
 11
-54.86260425261408
 21
837.1720269008604
 31
0.0
 11
-55.06689862932711
 21
837.1142579476752
 31
0.0
  0
SPLINE
  5
16D
330
1F
100
AcDbEntity
  8
0
  6
Continuous
 62
     7
100
AcDbSpline
210
0.0
220
0.0
230
1.0
 70
     8
 71
     3
 72
    11
 73
     7
 74
     5
 42
0.000000001
 43
0.0000000001
 44
0.00000001
 40
0.0
 40
0.0
 40
0.0
 40
0.0
 40
0.1480080919612652
 40
0.3064789069704389
 40
0.4826615621836595
 40
0.6796136873790494
 40
0.6796136873790494
 40
0.6796136873790494
 40
0.6796136873790494
 10
-54.85860471973018
 20
836.8625258762846
 30
0.0
 10
-54.89893761266909
 20
836.8917505244469
 30
0.0
 10
-54.98245452964296
 20
836.9522657284704
 30
0.0
 10
-55.06554438179171
 20
837.0943730045548
 30
0.0
 10
-55.11808915745915
 20
837.2650238350536
 30
0.0
 10
-55.12368718216251
 20
837.3897813627341
 30
0.0
 10
-55.12664198598264
 20
837.4556322611717
 30
0.0
 11
-54.85860471973018
 21
836.8625258762846
 31
0.0
 11
-54.97243023454352
 21
836.9571310993406
 31
0.0
 11
-55.05699417229008
 21
837.0911532646094
 31
0.0
 11
-55.10906188474438
 21
837.2594663128159
 31
0.0
 11
-55.12664198598264
 21
837.4556322611717
 31
0.0
  0
SPLINE
  5
16E
330
1F
100
AcDbEntity
  8
0
  6
Continuous
 62
     7
100
AcDbSpline
210
0.0
220
0.0
230
1.0
 70
     8
 71
     3
 72
    17
 73
    13
 74
    11
 42
0.000000001
 43
0.0000000001
 44
0.00000001
 40
0.0
 40
0.0
 40
0.0
 40
0.0
 40
0.2636273818676343
 40
0.5508863347547416
 40
0.8527574909032138
 40
1.158445693809591
 40
1.456721882380882
 40
1.737210455944926
 40
1.991784927986246
 40
2.216282355635251
 40
2.412731361893752
 40
2.591520179091677
 40
2.591520179091677
 40
2.591520179091677
 40
2.591520179091677
 10
-55.12664198598264
 20
837.4556322611717
 30
0.0
 10
-55.12121049851049
 20
837.5435630863735
 30
0.0
 10
-55.10986063251875
 20
837.7273068587409
 30
0.0
 10
-55.03048346422357
 20
838.0023060374622
 30
0.0
 10
-54.91175317467089
 20
838.276533602389
 30
0.0
 10
-54.75415662692518
 20
838.5353016910884
 30
0.0
 10
-54.56769940818013
 20
838.7649271772848
 30
0.0
 10
-54.3619050876941
 20
838.9530100447874
 30
0.0
 10
-54.14690130044515
 20
839.0904817754465
 30
0.0
 10
-53.93424419015924
 20
839.1674301000162
 30
0.0
 10
-53.72858686622692
 20
839.1854346970135
 30
0.0
 10
-53.61183171415072
 20
839.1362416872929
 30
0.0
 10
-53.55620162115002
 20
839.1128027856469
 30
0.0
 11
-55.12664198598264
 21
837.4556322611717
 31
0.0
 11
-55.10120349692724
 21
837.7180294338247
 31
0.0
 11
-55.02629646491744
 21
837.9953499009719
 31
0.0
 11
-54.90606626387502
 21
838.2722449959848
 31
0.0
 11
-54.74716764414444
 21
838.5333896035182
 31
0.0
 11
-54.55839475795629
 21
838.7643300331201
 31
0.0
 11
-54.35019578530437
 21
838.9522848880812
 31
0.0
 11
-54.13409369039744
 21
839.0868510282276
 31
0.0
 11
-53.92204900412526
 21
839.1605812492801
 31
0.0
 11
-53.72579777372979
 21
839.1693942068641
 31
0.0
 11
-53.55620162115002
 21
839.1128027856469
 31
0.0
  0
SPLINE
  5
16F
330
1F
100
AcDbEntity
  8
0
  6
Continuous
 62
     7
100
AcDbSpline
210
0.0
220
0.0
230
1.0
 70
     8
 71
     3
 72
    19
 73
    15
 74
    13
 42
0.000000001
 43
0.0000000001
 44
0.00000001
 40
0.0
 40
0.0
 40
0.0
 40
0.0
 40
0.2391952226767759
 40
0.5067506047586328
 40
0.8173604626829711
 40
1.171227023291934
 40
1.55867268289692
 40
1.964241012589285
 40
2.36980934228164
 40
2.757255001886625
 40
3.111121562495596
 40
3.421731420420018
 40
3.689286802501872
 40
3.928482025178597
 40
3.928482025178597
 40
3.928482025178597
 40
3.928482025178597
 10
-112.8216786202902
 20
804.9625373869177
 30
0.0
 10
-112.8967776215742
 20
804.9927927023796
 30
0.0
 10
-113.0558797338154
 20
805.0568905342966
 30
0.0
 10
-113.3356737598762
 20
805.0152499206989
 30
0.0
 10
-113.6208903632465
 20
804.8893399907085
 30
0.0
 10
-113.9042191592866
 20
804.6777108046389
 30
0.0
 10
-114.1668212433245
 20
804.3978862351523
 30
0.0
 10
-114.3928664136356
 20
804.06656758822
 30
0.0
 10
-114.5675454883843
 20
803.7055195503201
 30
0.0
 10
-114.6793636938423
 20
803.3384251031307
 30
0.0
 10
-114.7217252888158
 20
802.987330223741
 30
0.0
 10
-114.6888200765596
 20
802.6772994699206
 30
0.0
 10
-114.5855469530532
 20
802.4139493233829
 30
0.0
 10
-114.4507116210437
 20
802.307923631129
 30
0.0
 10
-114.3870669599299
 20
802.257877640088
 30
0.0
 11
-112.8216786202902
 21
804.9625373869177
 31
0.0
 11
-113.0501763332553
 21
805.0332703495325
 31
0.0
 11
-113.316441333467
 21
805.0070246645328
 31
0.0
 11
-113.6023285349168
 21
804.8855874796192
 31
0.0
 11
-113.8883550479268
 21
804.6772359145555
 31
0.0
 11
-114.1550284931064
 21
804.3961675777424
 31
0.0
 11
-114.3841759457398
 21
804.061537766215
 31
0.0
 11
-114.5601807003707
 21
803.6961503113695
 31
0.0
 11
-114.6710492177467
 21
803.3249060411407
 31
0.0
 11
-114.7092249499613
 21
802.973104741713
 31
0.0
 11
-114.6721074023829
 21
802.6647206151852
 31
0.0
 11
-114.562224955564
 21
802.420770345253
 31
0.0
 11
-114.3870669599299
 21
802.257877640088
 31
0.0
  0
SPLINE
  5
170
330
1F
100
AcDbEntity
  8
0
  6
Continuous
 62
     7
100
AcDbSpline
210
0.0
220
0.0
230
1.0
 70
     8
 71
     3
 72
    19
 73
    15
 74
    13
 42
0.000000001
 43
0.0000000001
 44
0.00000001
 40
0.0
 40
0.0
 40
0.0
 40
0.0
 40
0.2412592956470622
 40
0.51787555896882
 40
0.8338709222772152
 40
1.184142374536246
 40
1.557801752282999
 40
1.940735035783735
 40
2.317668374520384
 40
2.674071729466286
 40
2.998164063902739
 40
3.283334717087811
 40
3.53131962206104
 40
3.755490832603006
 40
3.755490832603006
 40
3.755490832603006
 40
3.755490832603006
 10
-114.2233730111473
 20
802.1965009278571
 30
0.0
 10
-114.1424155255271
 20
802.1904466925982
 30
0.0
 10
-113.9686360962423
 20
802.1774509846921
 30
0.0
 10
-113.7008728870649
 20
802.2739400171758
 30
0.0
 10
-113.4321325545154
 20
802.4380680812615
 30
0.0
 10
-113.1738238710115
 20
802.6724537214945
 30
0.0
 10
-112.9407206665101
 20
802.9599058745556
 30
0.0
 10
-112.7459212491737
 20
803.2851412549453
 30
0.0
 10
-112.6006603210167
 20
803.6291551952484
 30
0.0
 10
-112.5134576712845
 20
803.9720123803869
 30
0.0
 10
-112.4888226756139
 20
804.2955966464939
 30
0.0
 10
-112.5309609812021
 20
804.5793943580627
 30
0.0
 10
-112.6352722101527
 20
804.8188929103527
 30
0.0
 10
-112.7616681167405
 20
804.9162933972565
 30
0.0
 10
-112.8216786202902
 20
804.9625373869177
 30
0.0
 11
-114.2233730111473
 21
802.1965009278571
 31
0.0
 11
-113.9821250333669
 21
802.1941640174429
 31
0.0
 11
-113.7181775781305
 21
802.2769184545705
 31
0.0
 11
-113.4473914086632
 21
802.4397923929932
 31
0.0
 11
-113.1860383938436
 21
802.672997645436
 31
0.0
 11
-112.9498237711671
 21
802.9625213584072
 31
0.0
 11
-112.7529415971116
 21
803.2909651242403
 31
0.0
 11
-112.6072233039214
 21
803.6385926828514
 31
0.0
 11
-112.5214246344691
 21
803.9845145507003
 31
0.0
 11
-112.50070207554
 21
804.307943701797
 31
0.0
 11
-112.5463000982925
 21
804.5894452478054
 31
0.0
 11
-112.6554794246149
 21
804.8121028106609
 31
0.0
 11
-112.8216786202902
 21
804.9625373869177
 31
0.0
  0
SPLINE
  5
171
330
1F
100
AcDbEntity
  8
0
  6
Continuous
 62
     7
100
AcDbSpline
210
0.0
220
0.0
230
1.0
 70
     8
 71
     3
 72
    19
 73
    15
 74
    13
 42
0.000000001
 43
0.0000000001
 44
0.00000001
 40
0.0
 40
0.0
 40
0.0
 40
0.0
 40
0.2162324808423596
 40
0.4581025455558068
 40
0.7388938574295689
 40
1.058789228478918
 40
1.40904010511173
 40
1.775673875655146
 40
2.14230764619875
 40
2.492558522831474
 40
2.812453893880874
 40
3.093245205754636
 40
3.335115270468014
 40
3.551347751310384
 40
3.551347751310384
 40
3.551347751310384
 40
3.551347751310384
 10
-112.896817260593
 20
804.8327137190698
 30
0.0
 10
-112.9647067576102
 20
804.8600645241896
 30
0.0
 10
-113.1085350670569
 20
804.9180089624001
 30
0.0
 10
-113.3614688663505
 20
804.8803658508264
 30
0.0
 10
-113.6193046759846
 20
804.7665432736957
 30
0.0
 10
-113.8754339079523
 20
804.5752304896985
 30
0.0
 10
-114.1128261923342
 20
804.3222690786812
 30
0.0
 10
-114.3171710266568
 20
804.0227570215562
 30
0.0
 10
-114.475080910308
 20
803.6963695948327
 30
0.0
 10
-114.5761645680116
 20
803.3645162141164
 30
0.0
 10
-114.6144594495125
 20
803.0471264429514
 30
0.0
 10
-114.5847131379035
 20
802.7668586411261
 30
0.0
 10
-114.4913542316819
 20
802.5287901104399
 30
0.0
 10
-114.3694630931524
 20
802.4329428837412
 30
0.0
 10
-114.3119283196272
 20
802.3877013079359
 30
0.0
 11
-112.896817260593
 21
804.8327137190698
 31
0.0
 11
-113.1033791931133
 21
804.8966563172736
 31
0.0
 11
-113.3440827533047
 21
804.8729302180338
 31
0.0
 11
-113.6025247834153
 21
804.7631510028721
 31
0.0
 11
-113.8610927511764
 21
804.5748011880544
 31
0.0
 11
-114.1021655456187
 21
804.3207154115753
 31
0.0
 11
-114.3093148427993
 21
804.0182100619546
 31
0.0
 11
-114.4684231409856
 21
803.6878998027742
 31
0.0
 11
-114.5686482806935
 21
803.3522949824874
 31
0.0
 11
-114.6031591426155
 21
803.0342666078046
 31
0.0
 11
-114.5696048796047
 21
802.7554873574236
 31
0.0
 11
-114.4702711476804
 21
802.534956313405
 31
0.0
 11
-114.3119283196272
 21
802.3877013079359
 31
0.0
  0
SPLINE
  5
172
330
1F
100
AcDbEntity
  8
0
  6
Continuous
 62
     7
100
AcDbSpline
210
0.0
220
0.0
230
1.0
 70
     8
 71
     3
 72
    19
 73
    15
 74
    13
 42
0.000000001
 43
0.0000000001
 44
0.00000001
 40
0.0
 40
0.0
 40
0.0
 40
0.0
 40
0.218688496329708
 40
0.4695246816495452
 40
0.7554322146443468
 40
1.071495256165761
 40
1.407847679939868
 40
1.751881300863021
 40
2.090041809503724
 40
2.409494515519826
 40
2.699887182582597
 40
2.95548492207252
 40
3.177967517596567
 40
3.379300140327858
 40
3.379300140327858
 40
3.379300140327858
 40
3.379300140327858
 10
-114.1483519014883
 20
802.3293215681405
 30
0.0
 10
-114.0748805464503
 20
802.3258545160901
 30
0.0
 10
-113.9171373879126
 20
802.3184107684292
 30
0.0
 10
-113.6763496575545
 20
802.4098083226271
 30
0.0
 10
-113.4350899917289
 20
802.56115108966
 30
0.0
 10
-113.2039334035611
 20
802.7746349190234
 30
0.0
 10
-112.9958802475772
 20
803.0348373058043
 30
0.0
 10
-112.8225281793308
 20
803.328068174773
 30
0.0
 10
-112.6937450308638
 20
803.6374027943054
 30
0.0
 10
-112.6169972508242
 20
803.9451380075304
 30
0.0
 10
-112.5962014823602
 20
804.2352228882936
 30
0.0
 10
-112.6350367206769
 20
804.4894833321553
 30
0.0
 10
-112.7293690593749
 20
804.7039300728011
 30
0.0
 10
-112.8428895560521
 20
804.791238174704
 30
0.0
 10
-112.896817260593
 20
804.8327137190698
 30
0.0
 11
-114.1483519014883
 21
802.3293215681405
 31
0.0
 11
-113.9296920124246
 21
802.3328587068663
 31
0.0
 11
-113.6917297539133
 21
802.4121855834492
 31
0.0
 11
-113.4485842303601
 21
802.5625962628473
 31
0.0
 11
-113.2146822071282
 21
802.7751655176093
 31
0.0
 11
-113.0039022051755
 21
803.0372814117853
 31
0.0
 11
-112.8287503010349
 21
803.3333910896758
 31
0.0
 11
-112.6996194209585
 21
803.645925478662
 31
0.0
 11
-112.624170839967
 21
803.9563405912202
 31
0.0
 11
-112.6068818638999
 21
804.246218136955
 31
0.0
 11
-112.6487776425527
 21
804.4983588654826
 31
0.0
 11
-112.7473729985138
 21
804.6978017476769
 31
0.0
 11
-112.896817260593
 21
804.8327137190698
 31
0.0
  0
SPLINE
  5
173
330
1F
100
AcDbEntity
  8
0
  6
Continuous
 62
     7
100
AcDbSpline
210
0.0
220
0.0
230
1.0
 70
     8
 71
     3
 72
    13
 73
     9
 74
     7
 42
0.000000001
 43
0.0000000001
 44
0.00000001
 40
0.0
 40
0.0
 40
0.0
 40
0.0
 40
0.3659528222560926
 40
0.7516391977202251
 40
1.147581511881654
 40
1.543457796007817
 40
1.9289513711056
 40
2.294600948170781
 40
2.294600948170781
 40
2.294600948170781
 40
2.294600948170781
 10
-117.4059394972251
 20
801.2370881710328
 30
0.0
 10
-117.3138368619603
 20
801.3173415293257
 30
0.0
 10
-117.124665080854
 20
801.4821758199203
 30
0.0
 10
-116.8806511506047
 20
801.7787498133755
 30
0.0
 10
-116.6640297915151
 20
802.1068760734295
 30
0.0
 10
-116.4879604419008
 20
802.4583586946862
 30
0.0
 10
-116.3529619475329
 20
802.8177096353595
 30
0.0
 10
-116.304732328985
 20
803.0637740237389
 30
0.0
 10
-116.2812546013869
 20
803.1835559061639
 30
0.0
 11
-117.4059394972251
 21
801.2370881710328
 31
0.0
 11
-117.1365884786522
 21
801.4848208843109
 31
0.0
 11
-116.8882875549606
 21
801.7799490470551
 31
0.0
 11
-116.6708312704633
 21
802.1108313245579
 31
0.0
 11
-116.4927971685382
 21
802.4644156737293
 31
0.0
 11
-116.3612081538329
 21
802.8267547809082
 31
0.0
 11
-116.2812546013869
 21
803.1835559061639
 31
0.0
  0
SPLINE
  5
174
330
1F
100
AcDbEntity
  8
0
  6
Continuous
 62
     7
100
AcDbSpline
210
0.0
220
0.0
230
1.0
 70
     8
 71
     3
 72
    13
 73
     9
 74
     7
 42
0.000000001
 43
0.0000000001
 44
0.00000001
 40
0.0
 40
0.0
 40
0.0
 40
0.0
 40
0.3663279492268025
 40
0.7524198200710239
 40
1.148767915323874
 40
1.545018546208724
 40
1.93082584770438
 40
2.296706270183614
 40
2.296706270183614
 40
2.296706270183614
 40
2.296706270183614
 10
-116.8756094113352
 20
800.9301465923055
 30
0.0
 10
-116.7834156189945
 20
801.0104864418096
 30
0.0
 10
-116.5940540562319
 20
801.1755006026073
 30
0.0
 10
-116.3498432605279
 20
801.4724302537537
 30
0.0
 10
-116.1330955952982
 20
801.8009491677999
 30
0.0
 10
-115.9570031730816
 20
802.1528298713838
 30
0.0
 10
-115.8220804703344
 20
802.5125427530293
 30
0.0
 10
-115.774008302964
 20
802.7588243738718
 30
0.0
 10
-115.7506094113352
 20
802.8787007823865
 30
0.0
 11
-116.8756094113352
 21
800.9301465923055
 31
0.0
 11
-116.6059989761479
 21
801.1781513905224
 31
0.0
 11
-116.3574906911909
 21
801.4736350042334
 31
0.0
 11
-116.1399067476581
 21
801.8049189326366
 31
0.0
 11
-115.9618467674519
 21
802.158909337906
 31
0.0
 11
-115.8303486254802
 21
802.5216151601505
 31
0.0
 11
-115.7506094113352
 21
802.8787007823865
 31
0.0
  0
SPLINE
  5
175
330
1F
100
AcDbEntity
  8
0
  6
Continuous
 62
     7
100
AcDbSpline
210
0.0
220
0.0
230
1.0
 70
     8
 71
     3
 72
     9
 73
     5
 74
     3
 42
0.000000001
 43
0.0000000001
 44
0.00000001
 40
0.0
 40
0.0
 40
0.0
 40
0.0
 40
0.1213836112713394
 40
0.2508235802466888
 40
0.2508235802466888
 40
0.2508235802466888
 40
0.2508235802466888
 10
-114.4536069681473
 20
802.3365376853134
 30
0.0
 10
-114.4132144621345
 20
802.3319268932388
 30
0.0
 10
-114.3297485565062
 20
802.3223993058562
 30
0.0
 10
-114.2467007796757
 20
802.3352746492943
 30
0.0
 10
-114.2038431604274
 20
802.341919106812
 30
0.0
 11
-114.4536069681473
 21
802.3365376853134
 31
0.0
 11
-114.3325273743381
 21
802.3279520423466
 31
0.0
 11
-114.2038431604274
 21
802.341919106812
 31
0.0
  0
SPLINE
  5
176
330
1F
100
AcDbEntity
  8
0
  6
Continuous
 62
     7
100
AcDbSpline
210
0.0
220
0.0
230
1.0
 70
     8
 71
     3
 72
     9
 73
     5
 74
     3
 42
0.000000001
 43
0.0000000001
 44
0.00000001
 40
0.0
 40
0.0
 40
0.0
 40
0.0
 40
0.0862479990564124
 40
0.1743792236691552
 40
0.1743792236691552
 40
0.1743792236691552
 40
0.1743792236691552
 10
-114.3119283196272
 20
802.3877013079359
 30
0.0
 10
-114.2862631998964
 20
802.3744361171226
 30
0.0
 10
-114.2343725548539
 20
802.3476161083538
 30
0.0
 10
-114.1772311559708
 20
802.3354634896184
 30
0.0
 10
-114.1483519014883
 20
802.3293215681405
 30
0.0
 11
-114.3119283196272
 21
802.3877013079359
 31
0.0
 11
-114.2336484677982
 21
802.3514938184762
 31
0.0
 11
-114.1483519014883
 21
802.3293215681405
 31
0.0
  0
SPLINE
  5
177
330
1F
100
AcDbEntity
  8
0
  6
Continuous
 62
     7
100
AcDbSpline
210
0.0
220
0.0
230
1.0
 70
     8
 71
     3
 72
     9
 73
     5
 74
     3
 42
0.000000001
 43
0.0000000001
 44
0.00000001
 40
0.0
 40
0.0
 40
0.0
 40
0.0
 40
0.0240744598118543
 40
0.0483625429171906
 40
0.0483625429171906
 40
0.0483625429171906
 40
0.0483625429171906
 10
-114.5008932330562
 20
802.3466325335049
 30
0.0
 10
-114.4931000646166
 20
802.3447090410673
 30
0.0
 10
-114.4774445711352
 20
802.3408450077018
 30
0.0
 10
-114.4615762013192
 20
802.3379776746702
 30
0.0
 10
-114.4536069681473
 20
802.3365376853134
 30
0.0
 11
-114.5008932330562
 21
802.3466325335049
 31
0.0
 11
-114.4774609754903
 21
802.3411090445037
 31
0.0
 11
-114.4536069681473
 21
802.3365376853134
 31
0.0
  0
SPLINE
  5
178
330
1F
100
AcDbEntity
  8
0
  6
Continuous
 62
     7
100
AcDbSpline
210
0.0
220
0.0
230
1.0
 70
     8
 71
     3
 72
     9
 73
     5
 74
     3
 42
0.000000001
 43
0.0000000001
 44
0.00000001
 40
0.0
 40
0.0
 40
0.0
 40
0.0
 40
0.0869132244561646
 40
0.1754093911624984
 40
0.1754093911624984
 40
0.1754093911624984
 40
0.1754093911624984
 10
-114.3870669599299
 20
802.257877640088
 30
0.0
 10
-114.3612844071632
 20
802.244404701865
 30
0.0
 10
-114.3092497186948
 20
802.2172134623892
 30
0.0
 10
-114.2521702825685
 20
802.2034465119245
 30
0.0
 10
-114.2233730111473
 20
802.1965009278571
 30
0.0
 11
-114.3870669599299
 21
802.257877640088
 31
0.0
 11
-114.3084807704198
 21
802.2207546075372
 31
0.0
 11
-114.2233730111473
 21
802.1965009278571
 31
0.0
  0
SPLINE
  5
179
330
1F
100
AcDbEntity
  8
0
  6
Continuous
 62
     7
100
AcDbSpline
210
0.0
220
0.0
230
1.0
 70
     8
 71
     3
 72
     9
 73
     5
 74
     3
 42
0.000000001
 43
0.0000000001
 44
0.00000001
 40
0.0
 40
0.0
 40
0.0
 40
0.0
 40
0.0591007118601042
 40
0.117604017449717
 40
0.117604017449717
 40
0.117604017449717
 40
0.117604017449717
 10
-114.6529556236067
 20
802.6018539891469
 30
0.0
 10
-114.638381867524
 20
802.5885291827221
 30
0.0
 10
-114.609381658382
 20
802.5620142762004
 30
0.0
 10
-114.5760145190533
 20
802.5412634240964
 30
0.0
 10
-114.5594156930425
 20
802.5309407113419
 30
0.0
 11
-114.6529556236067
 21
802.6018539891469
 31
0.0
 11
-114.6081314965075
 21
802.5633352684406
 31
0.0
 11
-114.5594156930425
 21
802.5309407113419
 31
0.0
  0
SPLINE
  5
17A
330
1F
100
AcDbEntity
  8
0
  6
Continuous
 62
     7
100
AcDbSpline
210
0.0
220
0.0
230
1.0
 70
     8
 71
     3
 72
    15
 73
    11
 74
     9
 42
0.000000001
 43
0.0000000001
 44
0.00000001
 40
0.0
 40
0.0
 40
0.0
 40
0.0
 40
0.2242792176250782
 40
0.4804257153243311
 40
0.7649232753347432
 40
1.069487971962334
 40
1.383104623624837
 40
1.693651297462383
 40
1.989373711626375
 40
2.260408422398669
 40
2.260408422398669
 40
2.260408422398669
 40
2.260408422398669
 10
-110.9283343430644
 20
804.7830783217281
 30
0.0
 10
-110.8551937882472
 20
804.800415682633
 30
0.0
 10
-110.6985203229236
 20
804.8375538432922
 30
0.0
 10
-110.4785209760008
 20
804.9734215346693
 30
0.0
 10
-110.2649700775824
 20
805.157936343133
 30
0.0
 10
-110.0708223676743
 20
805.3895457924986
 30
0.0
 10
-109.9058698902107
 20
805.6527377655871
 30
0.0
 10
-109.7812281084861
 20
805.9335684854066
 30
0.0
 10
-109.6976647548051
 20
806.2160155389735
 30
0.0
 10
-109.6856674842657
 20
806.4050555832276
 30
0.0
 10
-109.6799301545248
 20
806.4954583535399
 30
0.0
 11
-110.9283343430644
 21
804.7830783217281
 31
0.0
 11
-110.712944108156
 21
804.845594042508
 31
0.0
 11
-110.4909163370856
 21
804.9733230607533
 31
0.0
 11
-110.2752039944735
 21
805.1588144252706
 31
0.0
 11
-110.078391468437
 21
805.3912461002706
 31
0.0
 11
-109.9119609568021
 21
805.6570586078144
 31
0.0
 11
-109.7856215240754
 21
805.9407443217727
 31
0.0
 11
-109.7067442227639
 21
806.2257532950754
 31
0.0
 11
-109.6799301545248
 21
806.4954583535399
 31
0.0
  0
SPLINE
  5
17B
330
1F
100
AcDbEntity
  8
0
  6
Continuous
 62
     7
100
AcDbSpline
210
0.0
220
0.0
230
1.0
 70
     8
 71
     3
 72
     9
 73
     5
 74
     3
 42
0.000000001
 43
0.0000000001
 44
0.00000001
 40
0.0
 40
0.0
 40
0.0
 40
0.0
 40
0.1549873979892514
 40
0.2989149781452169
 40
0.2989149781452169
 40
0.2989149781452169
 40
0.2989149781452169
 10
-112.8032773300287
 20
804.7618004412649
 30
0.0
 10
-112.8223120031161
 20
804.8102693664644
 30
0.0
 10
-112.8590230626744
 20
804.9037484909591
 30
0.0
 10
-112.9240359861167
 20
804.9802070847453
 30
0.0
 10
-112.9553397205793
 20
805.0170218969068
 30
0.0
 11
-112.8032773300287
 21
804.7618004412649
 31
0.0
 11
-112.8679900938239
 21
804.9026313756506
 31
0.0
 11
-112.9553397205793
 21
805.0170218969068
 31
0.0
  0
SPLINE
  5
17C
330
1F
100
AcDbEntity
  8
0
  6
Continuous
 62
     7
100
AcDbSpline
210
0.0
220
0.0
230
1.0
 70
     8
 71
     3
 72
     9
 73
     5
 74
     3
 42
0.000000001
 43
0.0000000001
 44
0.00000001
 40
0.0
 40
0.0
 40
0.0
 40
0.0
 40
0.0585033055894618
 40
0.117604017449554
 40
0.117604017449554
 40
0.117604017449554
 40
0.117604017449554
 10
-113.1443046340083
 20
804.975953122476
 30
0.0
 10
-113.1615240665488
 20
804.985203558494
 30
0.0
 10
-113.196138776144
 20
805.0037988732179
 30
0.0
 10
-113.2335760603164
 20
805.0157362997378
 30
0.0
 10
-113.252389793208
 20
805.0217353235997
 30
0.0
 11
-113.1443046340083
 21
804.975953122476
 31
0.0
 11
-113.1966614288114
 21
805.0020568171338
 31
0.0
 11
-113.252389793208
 21
805.0217353235997
 31
0.0
  0
SPLINE
  5
17D
330
1F
100
AcDbEntity
  8
0
  6
Continuous
 62
     7
100
AcDbSpline
210
0.0
220
0.0
230
1.0
 70
     8
 71
     3
 72
    17
 73
    13
 74
    11
 42
0.000000001
 43
0.0000000001
 44
0.00000001
 40
0.0
 40
0.0
 40
0.0
 40
0.0
 40
0.1787888171978911
 40
0.3752378234564401
 40
0.5997352511053733
 40
0.8543097231467529
 40
1.134798296710787
 40
1.433074485282161
 40
1.738762688188441
 40
2.040633844336916
 40
2.327892797224131
 40
2.591520179091761
 40
2.591520179091761
 40
2.591520179091761
 40
2.591520179091761
 10
-110.7200404334675
 20
804.5313462503374
 30
0.0
 10
-110.6644103404668
 20
804.5079073486913
 30
0.0
 10
-110.5476551883906
 20
804.4587143389705
 30
0.0
 10
-110.3419978644583
 20
804.4767189359684
 30
0.0
 10
-110.1293407541722
 20
804.5536672605374
 30
0.0
 10
-109.9143369669235
 20
804.6911389911968
 30
0.0
 10
-109.7085426464373
 20
804.8792218586993
 30
0.0
 10
-109.5220854276924
 20
805.1088473448957
 30
0.0
 10
-109.3644888799466
 20
805.3676154335955
 30
0.0
 10
-109.2457585903939
 20
805.6418429985217
 30
0.0
 10
-109.1663814220988
 20
805.9168421772433
 30
0.0
 10
-109.155031556107
 20
806.1005859496107
 30
0.0
 10
-109.1496000686349
 20
806.1885167748126
 30
0.0
 11
-110.7200404334675
 21
804.5313462503374
 31
0.0
 11
-110.5504442808878
 21
804.4747548291201
 31
0.0
 11
-110.3541930504923
 21
804.4835677867043
 31
0.0
 11
-110.14214836422
 21
804.5572980077565
 31
0.0
 11
-109.9260462693131
 21
804.691864147903
 31
0.0
 11
-109.7178472966612
 21
804.879819002864
 31
0.0
 11
-109.529074410473
 21
805.110759432466
 31
0.0
 11
-109.3701757907425
 21
805.3719040399993
 31
0.0
 11
-109.2499455897
 21
805.6487991350123
 31
0.0
 11
-109.1750385576903
 21
805.9261196021596
 31
0.0
 11
-109.1496000686349
 21
806.1885167748126
 31
0.0
  0
SPLINE
  5
17E
330
1F
100
AcDbEntity
  8
0
  6
Continuous
 62
     7
100
AcDbSpline
210
0.0
220
0.0
230
1.0
 70
     8
 71
     3
 72
    11
 73
     7
 74
     5
 42
0.000000001
 43
0.0000000001
 44
0.00000001
 40
0.0
 40
0.0
 40
0.0
 40
0.0
 40
0.1969521251953867
 40
0.373134780408601
 40
0.531605595417771
 40
0.679613687379047
 40
0.679613687379047
 40
0.679613687379047
 40
0.679613687379047
 10
-109.1496000686349
 20
806.1885167748126
 30
0.0
 10
-109.152554872455
 20
806.2543676732503
 30
0.0
 10
-109.1581528971583
 20
806.3791252009305
 30
0.0
 10
-109.2106976728258
 20
806.5497760314297
 30
0.0
 10
-109.2937875249745
 20
806.6918833075134
 30
0.0
 10
-109.3773044419484
 20
806.7523985115374
 30
0.0
 10
-109.4176373348873
 20
806.7816231596996
 30
0.0
 11
-109.1496000686349
 21
806.1885167748126
 31
0.0
 11
-109.1671801698731
 21
806.3846827231683
 31
0.0
 11
-109.2192478823274
 21
806.5529957713749
 31
0.0
 11
-109.3038118200739
 21
806.6870179366437
 31
0.0
 11
-109.4176373348873
 21
806.7816231596996
 31
0.0
  0
SPLINE
  5
17F
330
1F
100
AcDbEntity
  8
0
  6
Continuous
 62
     7
100
AcDbSpline
210
0.0
220
0.0
230
1.0
 70
     8
 71
     3
 72
     9
 73
     5
 74
     3
 42
0.000000001
 43
0.0000000001
 44
0.00000001
 40
0.0
 40
0.0
 40
0.0
 40
0.0
 40
0.1830116156305218
 40
0.3481550999341519
 40
0.3481550999341519
 40
0.3481550999341519
 40
0.3481550999341519
 10
-109.6799301545248
 20
806.4954583535399
 30
0.0
 10
-109.6819308779354
 20
806.5567990610659
 30
0.0
 10
-109.6857370061017
 20
806.6734915430952
 30
0.0
 10
-109.7223205204409
 20
806.7842809507187
 30
0.0
 10
-109.7396735111803
 20
806.8368326670363
 30
0.0
 11
-109.6799301545248
 21
806.4954583535399
 31
0.0
 11
-109.6949893718655
 21
806.6778493395533
 31
0.0
 11
-109.7396735111803
 21
806.8368326670363
 31
0.0
  0
SPLINE
  5
180
330
1F
100
AcDbEntity
  8
0
  6
Continuous
 62
     7
100
AcDbSpline
210
0.0
220
0.0
230
1.0
 70
     8
 71
     3
 72
    19
 73
    15
 74
    13
 42
0.000000001
 43
0.0000000001
 44
0.00000001
 40
0.0
 40
0.0
 40
0.0
 40
0.0
 40
0.1990104244665814
 40
0.4216165011537689
 40
0.6800439034896479
 40
0.9744608823692573
 40
1.296815671772796
 40
1.634248522954683
 40
1.97168137413663
 40
2.294036163540119
 40
2.588453142419805
 40
2.846880544755631
 40
3.06948662144277
 40
3.26849704590938
 40
3.26849704590938
 40
3.26849704590938
 40
3.26849704590938
 10
-109.4176373348873
 20
806.7816231596996
 30
0.0
 10
-109.4801197037043
 20
806.8067955820629
 30
0.0
 10
-109.6124926610552
 20
806.8601249749936
 30
0.0
 10
-109.8452812902737
 20
806.8254799899377
 30
0.0
 10
-110.0825815046052
 20
806.7207229274509
 30
0.0
 10
-110.3183110635188
 20
806.5446474450089
 30
0.0
 10
-110.5367959981589
 20
806.3118334028434
 30
0.0
 10
-110.72486558049
 20
806.0361762880739
 30
0.0
 10
-110.8701985708182
 20
805.7357843197333
 30
0.0
 10
-110.9632313177059
 20
805.4303617388709
 30
0.0
 10
-110.9984761641024
 20
805.1382507988753
 30
0.0
 10
-110.9710990279788
 20
804.8803052110461
 30
0.0
 10
-110.8851757847208
 20
804.6611978922484
 30
0.0
 10
-110.7729927913012
 20
804.572984514716
 30
0.0
 10
-110.7200404334675
 20
804.5313462503374
 30
0.0
 11
-109.4176373348873
 21
806.7816231596996
 31
0.0
 11
-109.6077474320741
 21
806.8404729845951
 31
0.0
 11
-109.8292799122503
 21
806.8186365746753
 31
0.0
 11
-110.0671380638565
 21
806.7176008368273
 31
0.0
 11
-110.3051121226809
 21
806.5442523346942
 31
0.0
 11
-110.5269844290703
 21
806.3104034784658
 31
0.0
 11
-110.7176351096612
 21
806.0319914752749
 31
0.0
 11
-110.8640710655141
 21
805.7279891128434
 31
0.0
 11
-110.9563136719709
 21
805.4191138800131
 31
0.0
 11
-110.9880758811736
 21
805.1264151988892
 31
0.0
 11
-110.9571940815884
 21
804.8698396056182
 31
0.0
 11
-110.865771885835
 21
804.6668729810347
 31
0.0
 11
-110.7200404334675
 21
804.5313462503374
 31
0.0
  0
SPLINE
  5
181
330
1F
100
AcDbEntity
  8
0
  6
Continuous
 62
     7
100
AcDbSpline
210
0.0
220
0.0
230
1.0
 70
     8
 71
     3
 72
    13
 73
     9
 74
     7
 42
0.000000001
 43
0.0000000001
 44
0.00000001
 40
0.0
 40
0.0
 40
0.0
 40
0.0
 40
0.3663279492267293
 40
0.7524198200709415
 40
1.148767915323704
 40
1.545018546208656
 40
1.93082584770421
 40
2.296706270183551
 40
2.296706270183551
 40
2.296706270183551
 40
2.296706270183551
 10
-117.4042039807506
 20
803.8286891862907
 30
0.0
 10
-117.4963977730912
 20
803.7483493367864
 30
0.0
 10
-117.6857593358539
 20
803.5833351759891
 30
0.0
 10
-117.9299701315577
 20
803.2864055248422
 30
0.0
 10
-118.1467177967876
 20
802.9578866107967
 30
0.0
 10
-118.322810219004
 20
802.6060059072124
 30
0.0
 10
-118.4577329217514
 20
802.2462930255671
 30
0.0
 10
-118.5058050891217
 20
802.0000114047247
 30
0.0
 10
-118.5292039807505
 20
801.8801349962097
 30
0.0
 11
-117.4042039807506
 21
803.8286891862907
 31
0.0
 11
-117.6738144159378
 21
803.5806843880738
 31
0.0
 11
-117.9223227008948
 21
803.2852007743628
 31
0.0
 11
-118.1399066444276
 21
802.9539168459597
 31
0.0
 11
-118.3179666246338
 21
802.5999264406902
 31
0.0
 11
-118.4494647666055
 21
802.2372206184458
 31
0.0
 11
-118.5292039807505
 21
801.8801349962097
 31
0.0
  0
SPLINE
  5
182
330
1F
100
AcDbEntity
  8
0
  6
Continuous
 62
     7
100
AcDbSpline
210
0.0
220
0.0
230
1.0
 70
     8
 71
     3
 72
     9
 73
     5
 74
     3
 42
0.000000001
 43
0.0000000001
 44
0.00000001
 40
0.0
 40
0.0
 40
0.0
 40
0.0
 40
0.2322640217092526
 40
0.4439839219676505
 40
0.4439839219676505
 40
0.4439839219676505
 40
0.4439839219676505
 10
-47.93096272917228
 20
841.4474394571536
 30
0.0
 10
-48.00528482719133
 20
841.4238072533934
 30
0.0
 10
-48.14735511952485
 20
841.3786331712745
 30
0.0
 10
-48.2963160362192
 20
841.3798248811796
 30
0.0
 10
-48.36735011930449
 20
841.3803931740309
 30
0.0
 11
-47.93096272917228
 21
841.4474394571536
 31
0.0
 11
-48.15581479253485
 21
841.3892318470619
 31
0.0
 11
-48.36735011930449
 21
841.3803931740309
 31
0.0
  0
SPLINE
  5
183
330
1F
100
AcDbEntity
  8
0
  6
Continuous
 62
     7
100
AcDbSpline
210
0.0
220
0.0
230
1.0
 70
     8
 71
     3
 72
    11
 73
     7
 74
     5
 42
0.000000001
 43
0.0000000001
 44
0.00000001
 40
0.0
 40
0.0
 40
0.0
 40
0.0
 40
0.2116323332617858
 40
0.4060580662570475
 40
0.5870720112164571
 40
0.7606548229000107
 40
0.7606548229000107
 40
0.7606548229000107
 40
0.7606548229000107
 10
-47.40063264328234
 20
841.1404978784262
 30
0.0
 10
-47.46819377563945
 20
841.1194238862714
 30
0.0
 10
-47.59782303917309
 20
841.078989320408
 30
0.0
 10
-47.79436626008825
 20
841.0650375564853
 30
0.0
 10
-47.97856898479602
 20
841.0880293374785
 30
0.0
 10
-48.08572748573279
 20
841.13951881794
 30
0.0
 10
-48.138183895944
 20
841.1647240433371
 30
0.0
 11
-47.40063264328234
 21
841.1404978784262
 31
0.0
 11
-47.60503090990856
 21
841.085638120233
 31
0.0
 11
-47.7989293094638
 21
841.0713280856858
 31
0.0
 11
-47.97798404370389
 21
841.0978884202505
 31
0.0
 11
-48.138183895944
 21
841.1647240433371
 31
0.0
  0
SPLINE
  5
184
330
1F
100
AcDbEntity
  8
0
  6
Continuous
 62
     7
100
AcDbSpline
210
0.0
220
0.0
230
1.0
 70
     8
 71
     3
 72
    11
 73
     7
 74
     5
 42
0.000000001
 43
0.0000000001
 44
0.00000001
 40
0.0
 40
0.0
 40
0.0
 40
0.0
 40
0.1725011129695675
 40
0.3523006040649921
 40
0.5452876412113912
 40
0.7552217411595611
 40
0.7552217411595611
 40
0.7552217411595611
 40
0.7552217411595611
 10
-46.13448682120526
 20
844.6266885192788
 30
0.0
 10
-46.08678627302013
 20
844.5939913248385
 30
0.0
 10
-45.98936701541179
 20
844.5272135332866
 30
0.0
 10
-45.87809738130131
 20
844.3802438586245
 30
0.0
 10
-45.79235457384647
 20
844.2044702189455
 30
0.0
 10
-45.76256127597008
 20
844.0730679062499
 30
0.0
 10
-45.74703807386692
 20
844.0046033245857
 30
0.0
 11
-46.13448682120526
 21
844.6266885192788
 31
0.0
 11
-45.99750595759922
 21
844.5218415945192
 31
0.0
 11
-45.88572398085626
 21
844.3810131612502
 31
0.0
 11
-45.80161433622808
 21
844.2073192783248
 31
0.0
 11
-45.74703807386692
 21
844.0046033245857
 31
0.0
  0
SPLINE
  5
185
330
1F
100
AcDbEntity
  8
0
  6
Continuous
 62
     7
100
AcDbSpline
210
0.0
220
0.0
230
1.0
 70
     8
 71
     3
 72
     9
 73
     5
 74
     3
 42
0.000000001
 43
0.0000000001
 44
0.00000001
 40
0.0
 40
0.0
 40
0.0
 40
0.0
 40
0.2092522910079108
 40
0.438551970076225
 40
0.438551970076225
 40
0.438551970076225
 40
0.438551970076225
 10
-46.43565068373465
 20
844.7179609673121
 30
0.0
 10
-46.40014111581931
 20
844.6574037824337
 30
0.0
 10
-46.32572000855305
 20
844.5304877312499
 30
0.0
 10
-46.29396924042953
 20
844.3867165701234
 30
0.0
 10
-46.27736815975692
 20
844.3115449033131
 30
0.0
 11
-46.43565068373465
 21
844.7179609673121
 31
0.0
 11
-46.33883657629931
 21
844.5324520717535
 31
0.0
 11
-46.27736815975692
 21
844.3115449033131
 31
0.0
  0
SPLINE
  5
186
330
1F
100
AcDbEntity
  8
0
  6
Continuous
 62
     7
100
AcDbSpline
210
0.0
220
0.0
230
1.0
 70
     8
 71
     3
 72
    11
 73
     7
 74
     5
 42
0.000000001
 43
0.0000000001
 44
0.00000001
 40
0.0
 40
0.0
 40
0.0
 40
0.0
 40
0.2116323332617789
 40
0.4060580662570465
 40
0.5870720112164395
 40
0.7606548228999865
 40
0.7606548228999865
 40
0.7606548228999865
 40
0.7606548228999865
 10
-46.87203807386692
 20
844.6509146841896
 30
0.0
 10
-46.8044769415098
 20
844.6719886763444
 30
0.0
 10
-46.67484767797617
 20
844.7124232422075
 30
0.0
 10
-46.478304457061
 20
844.7263750061304
 30
0.0
 10
-46.29410173235323
 20
844.7033832251375
 30
0.0
 10
-46.18694323141646
 20
844.6518937446756
 30
0.0
 10
-46.13448682120526
 20
844.6266885192788
 30
0.0
 11
-46.87203807386692
 21
844.6509146841896
 31
0.0
 11
-46.6676398072407
 21
844.7057744423828
 31
0.0
 11
-46.47374140768545
 21
844.72008447693
 31
0.0
 11
-46.29468667344536
 21
844.6935241423654
 31
0.0
 11
-46.13448682120526
 21
844.6266885192788
 31
0.0
  0
SPLINE
  5
187
330
1F
100
AcDbEntity
  8
0
  6
Continuous
 62
     7
100
AcDbSpline
210
0.0
220
0.0
230
1.0
 70
     8
 71
     3
 72
    11
 73
     7
 74
     5
 42
0.000000001
 43
0.0000000001
 44
0.00000001
 40
0.0
 40
0.0
 40
0.0
 40
0.0
 40
0.1725011129696422
 40
0.3523006040648843
 40
0.5452876412112834
 40
0.7552217411594533
 40
0.7552217411594533
 40
0.7552217411594533
 40
0.7552217411594533
 10
-48.138183895944
 20
841.1647240433371
 30
0.0
 10
-48.18588444412912
 20
841.1974212377775
 30
0.0
 10
-48.28330370173737
 20
841.2641990293291
 30
0.0
 10
-48.39457333584802
 20
841.4111687039915
 30
0.0
 10
-48.48031614330278
 20
841.5869423436702
 30
0.0
 10
-48.51010944117918
 20
841.7183446563656
 30
0.0
 10
-48.52563264328234
 20
841.7868092380301
 30
0.0
 11
-48.138183895944
 21
841.1647240433371
 31
0.0
 11
-48.27516475955005
 21
841.2695709680968
 31
0.0
 11
-48.386946736293
 21
841.4103994013656
 31
0.0
 11
-48.47105638092118
 21
841.5840932842909
 31
0.0
 11
-48.52563264328234
 21
841.7868092380301
 31
0.0
  0
SPLINE
  5
188
330
1F
100
AcDbEntity
  8
0
  6
Continuous
 62
     7
100
AcDbSpline
210
0.0
220
0.0
230
1.0
 70
     8
 71
     3
 72
    19
 73
    15
 74
    13
 42
0.000000001
 43
0.0000000001
 44
0.00000001
 40
0.0
 40
0.0
 40
0.0
 40
0.0
 40
0.2391952226766812
 40
0.5067506047585129
 40
0.8173604626827936
 40
1.171227023291794
 40
1.558672682896785
 40
1.964241012589146
 40
2.369809342281601
 40
2.757255001886469
 40
3.111121562495554
 40
3.42173142041986
 40
3.689286802501595
 40
3.928482025178305
 40
3.928482025178305
 40
3.928482025178305
 40
3.928482025178305
 10
-51.45456343432721
 20
743.2695662736927
 30
0.0
 10
-51.3794644330432
 20
743.2393109582308
 30
0.0
 10
-51.22036232080201
 20
743.1752131263138
 30
0.0
 10
-50.94056829474135
 20
743.2168537399115
 30
0.0
 10
-50.65535169137097
 20
743.3427636699018
 30
0.0
 10
-50.37202289533094
 20
743.5543928559713
 30
0.0
 10
-50.10942081129301
 20
743.8342174254581
 30
0.0
 10
-49.88337564098191
 20
744.1655360723904
 30
0.0
 10
-49.70869656623334
 20
744.5265841102905
 30
0.0
 10
-49.59687836077528
 20
744.8936785574798
 30
0.0
 10
-49.55451676580176
 20
745.2447734368694
 30
0.0
 10
-49.58742197805799
 20
745.5548041906899
 30
0.0
 10
-49.69069510156429
 20
745.8181543372272
 30
0.0
 10
-49.82553043357376
 20
745.9241800294814
 30
0.0
 10
-49.88917509468757
 20
745.9742260205222
 30
0.0
 11
-51.45456343432721
 21
743.2695662736927
 31
0.0
 11
-51.22606572136223
 21
743.198833311078
 31
0.0
 11
-50.95980072115049
 21
743.2250789960776
 31
0.0
 11
-50.67391351970074
 21
743.3465161809911
 31
0.0
 11
-50.38788700669073
 21
743.5548677460549
 31
0.0
 11
-50.12121356151109
 21
743.835936082868
 31
0.0
 11
-49.89206610887774
 21
744.1705658943954
 31
0.0
 11
-49.71606135424688
 21
744.535953349241
 31
0.0
 11
-49.60519283687091
 21
744.9071976194697
 31
0.0
 11
-49.56701710465626
 21
745.2589989188975
 31
0.0
 11
-49.60413465223462
 21
745.5673830454252
 31
0.0
 11
-49.7140170990535
 21
745.8113333153573
 31
0.0
 11
-49.88917509468757
 21
745.9742260205222
 31
0.0
  0
SPLINE
  5
189
330
1F
100
AcDbEntity
  8
0
  6
Continuous
 62
     7
100
AcDbSpline
210
0.0
220
0.0
230
1.0
 70
     8
 71
     3
 72
    19
 73
    15
 74
    13
 42
0.000000001
 43
0.0000000001
 44
0.00000001
 40
0.0
 40
0.0
 40
0.0
 40
0.0
 40
0.216232480842441
 40
0.4581025455558954
 40
0.7388938574296379
 40
1.058789228478976
 40
1.409040105111822
 40
1.775673875655242
 40
2.142307646198836
 40
2.492558522831456
 40
2.812453893880966
 40
3.093245205754615
 40
3.3351152704681
 40
3.551347751310455
 40
3.551347751310455
 40
3.551347751310455
 40
3.551347751310455
 10
-51.3794247940246
 20
743.3993899415404
 30
0.0
 10
-51.31153529700744
 20
743.3720391364207
 30
0.0
 10
-51.16770698756063
 20
743.3140946982102
 30
0.0
 10
-50.91477318826695
 20
743.3517378097838
 30
0.0
 10
-50.65693737863302
 20
743.465560386915
 30
0.0
 10
-50.40080814666526
 20
743.6568731709117
 30
0.0
 10
-50.16341586228332
 20
743.9098345819289
 30
0.0
 10
-49.95907102796065
 20
744.2093466390543
 30
0.0
 10
-49.80116114430956
 20
744.5357340657774
 30
0.0
 10
-49.70007748660589
 20
744.8675874464941
 30
0.0
 10
-49.661782605105
 20
745.1849772176587
 30
0.0
 10
-49.69152891671403
 20
745.4652450194841
 30
0.0
 10
-49.78488782293556
 20
745.7033135501704
 30
0.0
 10
-49.90677896146511
 20
745.7991607768691
 30
0.0
 10
-49.9643137349903
 20
745.8444023526744
 30
0.0
 11
-51.3794247940246
 21
743.3993899415404
 31
0.0
 11
-51.1728628615042
 21
743.3354473433367
 31
0.0
 11
-50.93215930131279
 21
743.3591734425764
 31
0.0
 11
-50.67371727120222
 21
743.4689526577382
 31
0.0
 11
-50.41514930344118
 21
743.6573024725559
 31
0.0
 11
-50.17407650899874
 21
743.911388249035
 31
0.0
 11
-49.96692721181819
 21
744.2138935986557
 31
0.0
 11
-49.80781891363191
 21
744.5442038578361
 31
0.0
 11
-49.70759377392403
 21
744.8798086781228
 31
0.0
 11
-49.67308291200197
 21
745.1978370528057
 31
0.0
 11
-49.70663717501282
 21
745.4766163031866
 31
0.0
 11
-49.80597090693713
 21
745.6971473472053
 31
0.0
 11
-49.9643137349903
 21
745.8444023526744
 31
0.0
  0
SPLINE
  5
18A
330
1F
100
AcDbEntity
  8
0
  6
Continuous
 62
     7
100
AcDbSpline
210
0.0
220
0.0
230
1.0
 70
     8
 71
     3
 72
     9
 73
     5
 74
     3
 42
0.000000001
 43
0.0000000001
 44
0.00000001
 40
0.0
 40
0.0
 40
0.0
 40
0.0
 40
0.1549873979892454
 40
0.2989149781451379
 40
0.2989149781451379
 40
0.2989149781451379
 40
0.2989149781451379
 10
-49.87077380442605
 20
745.7734890748695
 30
0.0
 10
-49.8898084775134
 20
745.8219580000692
 30
0.0
 10
-49.9265195370717
 20
745.9154371245638
 30
0.0
 10
-49.99153246051404
 20
745.9918957183498
 30
0.0
 10
-50.02283619497666
 20
746.0287105305114
 30
0.0
 11
-49.87077380442605
 21
745.7734890748695
 31
0.0
 11
-49.93548656822128
 21
745.9143200092552
 31
0.0
 11
-50.02283619497666
 21
746.0287105305114
 31
0.0
  0
SPLINE
  5
18B
330
1F
100
AcDbEntity
  8
0
  6
Continuous
 62
     7
100
AcDbSpline
210
0.0
220
0.0
230
1.0
 70
     8
 71
     3
 72
     9
 73
     5
 74
     3
 42
0.000000001
 43
0.0000000001
 44
0.00000001
 40
0.0
 40
0.0
 40
0.0
 40
0.0
 40
0.086247999056384
 40
0.1743792236691555
 40
0.1743792236691555
 40
0.1743792236691555
 40
0.1743792236691555
 10
-49.9643137349903
 20
745.8444023526744
 30
0.0
 10
-49.98997885472107
 20
745.8576675434875
 30
0.0
 10
-50.04186949976364
 20
745.8844875522561
 30
0.0
 10
-50.09901089864672
 20
745.896640170992
 30
0.0
 10
-50.12789015312922
 20
745.9027820924698
 30
0.0
 11
-49.9643137349903
 21
745.8444023526744
 31
0.0
 11
-50.04259358681929
 21
745.8806098421339
 31
0.0
 11
-50.12789015312922
 21
745.9027820924698
 31
0.0
  0
SPLINE
  5
18C
330
1F
100
AcDbEntity
  8
0
  6
Continuous
 62
     7
100
AcDbSpline
210
0.0
220
0.0
230
1.0
 70
     8
 71
     3
 72
     9
 73
     5
 74
     3
 42
0.000000001
 43
0.0000000001
 44
0.00000001
 40
0.0
 40
0.0
 40
0.0
 40
0.0
 40
0.0954070786971437
 40
0.1928973715051863
 40
0.1928973715051863
 40
0.1928973715051863
 40
0.1928973715051863
 10
-49.88917509468757
 20
745.9742260205222
 30
0.0
 10
-49.91756571388703
 20
745.9888999041798
 30
0.0
 10
-49.9749668691629
 20
746.0185680574534
 30
0.0
 10
-50.03817638188705
 20
746.0320112177694
 30
0.0
 10
-50.07012245988551
 20
746.0388053787029
 30
0.0
 11
-49.88917509468757
 21
745.9742260205222
 31
0.0
 11
-49.97576785113562
 21
746.0142785531103
 31
0.0
 11
-50.07012245988551
 21
746.0388053787029
 31
0.0
  0
SPLINE
  5
18D
330
1F
100
AcDbEntity
  8
0
  6
Continuous
 62
     7
100
AcDbSpline
210
0.0
220
0.0
230
1.0
 70
     8
 71
     3
 72
    19
 73
    15
 74
    13
 42
0.000000001
 43
0.0000000001
 44
0.00000001
 40
0.0
 40
0.0
 40
0.0
 40
0.0
 40
0.2186884963297114
 40
0.4695246816496272
 40
0.7554322146444348
 40
1.071495256165838
 40
1.407847679939964
 40
1.751881300863011
 40
2.090041809503806
 40
2.409494515519799
 40
2.69988718258257
 40
2.95548492207261
 40
3.177967517596628
 40
3.379300140327883
 40
3.379300140327883
 40
3.379300140327883
 40
3.379300140327883
 10
-50.12789015312922
 20
745.9027820924698
 30
0.0
 10
-50.20136150816722
 20
745.9062491445202
 30
0.0
 10
-50.35910466670496
 20
745.9136928921819
 30
0.0
 10
-50.59989239706298
 20
745.822295337983
 30
0.0
 10
-50.84115206288861
 20
745.6709525709504
 30
0.0
 10
-51.07230865105637
 20
745.4574687415868
 30
0.0
 10
-51.28036180704026
 20
745.1972663548058
 30
0.0
 10
-51.4537138752868
 20
744.9040354858374
 30
0.0
 10
-51.5824970237536
 20
744.5947008663048
 30
0.0
 10
-51.65924480379334
 20
744.28696565308
 30
0.0
 10
-51.68004057225734
 20
743.9968807723169
 30
0.0
 10
-51.6412053339406
 20
743.7426203284549
 30
0.0
 10
-51.54687299524263
 20
743.5281735878093
 30
0.0
 10
-51.43335249856554
 20
743.4408654859066
 30
0.0
 10
-51.3794247940246
 20
743.3993899415404
 30
0.0
 11
-50.12789015312922
 21
745.9027820924698
 31
0.0
 11
-50.34655004219293
 21
745.8992449537442
 31
0.0
 11
-50.58451230070423
 21
745.8199180771611
 31
0.0
 11
-50.82765782425746
 21
745.669507397763
 31
0.0
 11
-51.06155984748932
 21
745.456938143001
 31
0.0
 11
-51.2723398494421
 21
745.194822248825
 31
0.0
 11
-51.4474917535826
 21
744.8987125709345
 31
0.0
 11
-51.57662263365897
 21
744.5861781819483
 31
0.0
 11
-51.65207121465056
 21
744.2757630693902
 31
0.0
 11
-51.6693601907176
 21
743.9858855236554
 31
0.0
 11
-51.62746441206474
 21
743.7337447951277
 31
0.0
 11
-51.52886905610376
 21
743.5343019129334
 31
0.0
 11
-51.3794247940246
 21
743.3993899415404
 31
0.0
  0
SPLINE
  5
18E
330
1F
100
AcDbEntity
  8
0
  6
Continuous
 62
     7
100
AcDbSpline
210
0.0
220
0.0
230
1.0
 70
     8
 71
     3
 72
     9
 73
     5
 74
     3
 42
0.000000001
 43
0.0000000001
 44
0.00000001
 40
0.0
 40
0.0
 40
0.0
 40
0.0
 40
0.0591007118600517
 40
0.1176040174496822
 40
0.1176040174496822
 40
0.1176040174496822
 40
0.1176040174496822
 10
-51.72045209800405
 20
743.6135426227514
 30
0.0
 10
-51.70587834192133
 20
743.6002178163269
 30
0.0
 10
-51.67687813277927
 20
743.5737029098054
 30
0.0
 10
-51.64351099345058
 20
743.5529520577008
 30
0.0
 10
-51.6269121674398
 20
743.5426293449466
 30
0.0
 11
-51.72045209800405
 21
743.6135426227514
 31
0.0
 11
-51.67562797090481
 21
743.5750239020452
 31
0.0
 11
-51.6269121674398
 21
743.5426293449466
 31
0.0
  0
SPLINE
  5
18F
330
1F
100
AcDbEntity
  8
0
  6
Continuous
 62
     7
100
AcDbSpline
210
0.0
220
0.0
230
1.0
 70
     8
 71
     3
 72
     9
 73
     5
 74
     3
 42
0.000000001
 43
0.0000000001
 44
0.00000001
 40
0.0
 40
0.0
 40
0.0
 40
0.0
 40
0.0585033055895188
 40
0.1176040174495933
 40
0.1176040174495933
 40
0.1176040174495933
 40
0.1176040174495933
 10
-50.21180110840561
 20
745.9876417560805
 30
0.0
 10
-50.22902054094609
 20
745.9968921920985
 30
0.0
 10
-50.26363525054133
 20
746.0154875068226
 30
0.0
 10
-50.30107253471378
 20
746.0274249333422
 30
0.0
 10
-50.31988626760534
 20
746.0334239572043
 30
0.0
 11
-50.21180110840561
 21
745.9876417560805
 31
0.0
 11
-50.26415790320868
 21
746.0137454507385
 31
0.0
 11
-50.31988626760534
 21
746.0334239572043
 31
0.0
  0
SPLINE
  5
190
330
1F
100
AcDbEntity
  8
0
  6
Continuous
 62
     7
100
AcDbSpline
210
0.0
220
0.0
230
1.0
 70
     8
 71
     3
 72
     9
 73
     5
 74
     3
 42
0.000000001
 43
0.0000000001
 44
0.00000001
 40
0.0
 40
0.0
 40
0.0
 40
0.0
 40
0.1439275801559547
 40
0.2989149781451568
 40
0.2989149781451568
 40
0.2989149781451568
 40
0.2989149781451568
 10
-51.56838970745349
 20
743.3583211671096
 30
0.0
 10
-51.52087396710769
 20
743.3495172699508
 30
0.0
 10
-51.42219123584633
 20
743.3312329780838
 30
0.0
 10
-51.32284872192771
 20
743.3459677511918
 30
0.0
 10
-51.27133963482476
 20
743.3536077404167
 30
0.0
 11
-51.56838970745349
 21
743.3583211671096
 31
0.0
 11
-51.42568951956522
 21
743.3395647009115
 31
0.0
 11
-51.27133963482476
 21
743.3536077404167
 31
0.0
  0
SPLINE
  5
191
330
1F
100
AcDbEntity
  8
0
  6
Continuous
 62
     7
100
AcDbSpline
210
0.0
220
0.0
230
1.0
 70
     8
 71
     3
 72
    19
 73
    15
 74
    13
 42
0.000000001
 43
0.0000000001
 44
0.00000001
 40
0.0
 40
0.0
 40
0.0
 40
0.0
 40
0.2419120534641923
 40
0.5193857093593279
 40
0.8356551043909246
 40
1.185282362429971
 40
1.557353627386486
 40
1.937921791898885
 40
2.311993150839442
 40
2.665370037875337
 40
2.986600864113341
 40
3.26934172613564
 40
3.515450792497307
 40
3.738163871403829
 40
3.738163871403829
 40
3.738163871403829
 40
3.738163871403829
 10
-50.07012245988551
 20
746.0388053787029
 30
0.0
 10
-50.15139608271588
 20
746.042640613272
 30
0.0
 10
-50.32589072718405
 20
746.0508748496021
 30
0.0
 10
-50.59224883490327
 20
745.949771356801
 30
0.0
 10
-50.85912899628823
 20
745.7823567926728
 30
0.0
 10
-51.11483318664609
 20
745.5462021140482
 30
0.0
 10
-51.34498048306959
 20
745.2583676157949
 30
0.0
 10
-51.53674162053414
 20
744.9339971857836
 30
0.0
 10
-51.67920085566779
 20
744.5918128723669
 30
0.0
 10
-51.76409884248082
 20
744.2513978137332
 30
0.0
 10
-51.78710301152805
 20
743.9305074589519
 30
0.0
 10
-51.74414367665575
 20
743.6492459064314
 30
0.0
 10
-51.63979374724313
 20
743.4120260585794
 30
0.0
 10
-51.51421797492646
 20
743.3154463007828
 30
0.0
 10
-51.45456343432721
 20
743.2695662736927
 30
0.0
 11
-50.07012245988551
 21
746.0388053787029
 31
0.0
 11
-50.31200286814182
 21
746.0348926146258
 31
0.0
 11
-50.5752354549906
 21
745.9471416449544
 31
0.0
 11
-50.84420174210702
 21
745.7807581500451
 31
0.0
 11
-51.10294291824849
 21
745.5456151691136
 31
0.0
 11
-51.33610663722276
 21
745.2556639587418
 31
0.0
 11
-51.52985874357285
 21
744.9281090053232
 31
0.0
 11
-51.67270263746268
 21
744.5823851237014
 31
0.0
 11
-51.75616345714366
 21
744.2390055744114
 31
0.0
 11
-51.77528843066914
 21
743.9183445724923
 31
0.0
 11
-51.72894354277881
 21
743.6394278373954
 31
0.0
 11
-51.61987788352989
 21
743.4188051801008
 31
0.0
 11
-51.45456343432721
 21
743.2695662736927
 31
0.0
  0
SPLINE
  5
192
330
1F
100
AcDbEntity
  8
0
  6
Continuous
 62
     7
100
AcDbSpline
210
0.0
220
0.0
230
1.0
 70
     8
 71
     3
 72
    17
 73
    13
 74
    11
 42
0.000000001
 43
0.0000000001
 44
0.00000001
 40
0.0
 40
0.0
 40
0.0
 40
0.0
 40
0.212305073418785
 40
0.4533931501359401
 40
0.7206260226396964
 40
1.007298784765767
 40
1.304266032389154
 40
1.601233280012463
 40
1.887906042138612
 40
2.155138914642337
 40
2.3962269913596
 40
2.608532064778288
 40
2.608532064778288
 40
2.608532064778288
 40
2.608532064778288
 10
-55.06689862932711
 20
741.7022125723014
 30
0.0
 10
-54.9976090915093
 20
741.7182636432141
 30
0.0
 10
-54.8496361780515
 20
741.7525419100605
 30
0.0
 10
-54.64035584801956
 20
741.876726204012
 30
0.0
 10
-54.43580984597737
 20
742.0459058305219
 30
0.0
 10
-54.24713627402197
 20
742.2592782369127
 30
0.0
 10
-54.08329885478413
 20
742.5037905310166
 30
0.0
 10
-53.95290001242911
 20
742.7676562237903
 30
0.0
 10
-53.86187441018323
 20
743.0375447939432
 30
0.0
 10
-53.81707481729642
 20
743.2991815831274
 30
0.0
 10
-53.81364867716169
 20
743.542509051709
 30
0.0
 10
-53.85763897053445
 20
743.6878907451377
 30
0.0
 10
-53.87823779744298
 20
743.7559669176096
 30
0.0
 11
-55.06689862932711
 21
741.7022125723014
 31
0.0
 11
-54.86260425261411
 21
741.7599815254864
 31
0.0
 11
-54.65173598926685
 21
741.8768491273702
 31
0.0
 11
-54.44539512956597
 21
742.0466633128667
 31
0.0
 11
-54.25444453470962
 21
742.2604836626066
 31
0.0
 11
-54.08893711026143
 21
742.5070538100263
 31
0.0
 11
-53.95758583447795
 21
742.7733926684305
 31
0.0
 11
-53.86730612297824
 21
743.0454787675433
 31
0.0
 11
-53.82285041759926
 21
743.3089879670738
 31
0.0
 11
-53.82655954398225
 21
743.5500475100059
 31
0.0
 11
-53.87823779744298
 21
743.7559669176096
 31
0.0
  0
SPLINE
  5
193
330
1F
100
AcDbEntity
  8
0
  6
Continuous
 62
     7
100
AcDbSpline
210
0.0
220
0.0
230
1.0
 70
     8
 71
     3
 72
    19
 73
    15
 74
    13
 42
0.000000001
 43
0.0000000001
 44
0.00000001
 40
0.0
 40
0.0
 40
0.0
 40
0.0
 40
0.1990104244666629
 40
0.4216165011538291
 40
0.6800439034896886
 40
0.974460882369365
 40
1.296815671772914
 40
1.634248522954722
 40
1.971681374136546
 40
2.29403616354024
 40
2.588453142419929
 40
2.846880544755754
 40
3.06948662144277
 40
3.26849704590941
 40
3.26849704590941
 40
3.26849704590941
 40
3.26849704590941
 10
-54.85860471973024
 20
741.4504805009107
 30
0.0
 10
-54.79612235091322
 20
741.4253080785475
 30
0.0
 10
-54.66374939356223
 20
741.3719786856168
 30
0.0
 10
-54.4309607643438
 20
741.4066236706726
 30
0.0
 10
-54.19366055001217
 20
741.5113807331591
 30
0.0
 10
-53.95793099109873
 20
741.6874562156016
 30
0.0
 10
-53.73944605645864
 20
741.9202702577667
 30
0.0
 10
-53.55137647412748
 20
742.1959273725363
 30
0.0
 10
-53.40604348379929
 20
742.4963193408771
 30
0.0
 10
-53.31301073691164
 20
742.8017419217392
 30
0.0
 10
-53.27776589051516
 20
743.0938528617355
 30
0.0
 10
-53.30514302663867
 20
743.3517984495638
 30
0.0
 10
-53.39106626989678
 20
743.5709057683623
 30
0.0
 10
-53.50324926331629
 20
743.6591191458941
 30
0.0
 10
-53.55620162115002
 20
743.7007574102729
 30
0.0
 11
-54.85860471973024
 21
741.4504805009107
 31
0.0
 11
-54.66849462254334
 21
741.3916306760152
 31
0.0
 11
-54.44696214236717
 21
741.4134670859349
 31
0.0
 11
-54.20910399076098
 21
741.514502823783
 31
0.0
 11
-53.97112993193664
 21
741.6878513259162
 31
0.0
 11
-53.74925762554717
 21
741.9217001821446
 31
0.0
 11
-53.55860694495621
 21
742.2001121853353
 31
0.0
 11
-53.41217098910336
 21
742.5041145477668
 31
0.0
 11
-53.31992838264659
 21
742.8129897805973
 31
0.0
 11
-53.28816617344397
 21
743.1056884617212
 31
0.0
 11
-53.31904797302917
 21
743.3622640549922
 31
0.0
 11
-53.4104701687825
 21
743.5652306795756
 31
0.0
 11
-53.55620162115002
 21
743.7007574102729
 31
0.0
  0
SPLINE
  5
194
330
1F
100
AcDbEntity
  8
0
  6
Continuous
 62
     7
100
AcDbSpline
210
0.0
220
0.0
230
1.0
 70
     8
 71
     3
 72
    17
 73
    13
 74
    11
 42
0.000000001
 43
0.0000000001
 44
0.00000001
 40
0.0
 40
0.0
 40
0.0
 40
0.0
 40
0.1787888171979247
 40
0.3752378234564545
 40
0.5997352511053781
 40
0.8543097231467698
 40
1.13479829671089
 40
1.433074485282177
 40
1.738762688188561
 40
2.040633844336924
 40
2.327892797224135
 40
2.591520179091769
 40
2.591520179091769
 40
2.591520179091769
 40
2.591520179091769
 10
-53.55620162115002
 20
743.7007574102729
 30
0.0
 10
-53.6118317141507
 20
743.7241963119187
 30
0.0
 10
-53.72858686622697
 20
743.77338932164
 30
0.0
 10
-53.9342441901592
 20
743.755384724642
 30
0.0
 10
-54.14690130044526
 20
743.6784364000729
 30
0.0
 10
-54.36190508769411
 20
743.5409646694135
 30
0.0
 10
-54.56769940818012
 20
743.3528818019106
 30
0.0
 10
-54.75415662692522
 20
743.1232563157145
 30
0.0
 10
-54.91175317467091
 20
742.8644882270152
 30
0.0
 10
-55.03048346422364
 20
742.5902606620882
 30
0.0
 10
-55.10986063251876
 20
742.3152614833674
 30
0.0
 10
-55.12121049851046
 20
742.1315177109992
 30
0.0
 10
-55.12664198598264
 20
742.0435868857977
 30
0.0
 11
-53.55620162115002
 21
743.7007574102729
 31
0.0
 11
-53.72579777372979
 21
743.7573488314902
 31
0.0
 11
-53.92204900412528
 21
743.7485358739061
 31
0.0
 11
-54.13409369039746
 21
743.6748056528538
 31
0.0
 11
-54.35019578530441
 21
743.5402395127073
 31
0.0
 11
-54.55839475795632
 21
743.3522846577462
 31
0.0
 11
-54.74716764414447
 21
743.1213442281443
 31
0.0
 11
-54.90606626387506
 21
742.8601996206108
 31
0.0
 11
-55.02629646491746
 21
742.583304525598
 31
0.0
 11
-55.10120349692725
 21
742.3059840584507
 31
0.0
 11
-55.12664198598264
 21
742.0435868857977
 31
0.0
  0
SPLINE
  5
195
330
1F
100
AcDbEntity
  8
0
  6
Continuous
 62
     7
100
AcDbSpline
210
0.0
220
0.0
230
1.0
 70
     8
 71
     3
 72
    11
 73
     7
 74
     5
 42
0.000000001
 43
0.0000000001
 44
0.00000001
 40
0.0
 40
0.0
 40
0.0
 40
0.0
 40
0.1969521251952754
 40
0.3731347804084918
 40
0.5316055954176655
 40
0.6796136873789815
 40
0.6796136873789815
 40
0.6796136873789815
 40
0.6796136873789815
 10
-55.12664198598264
 20
742.0435868857977
 30
0.0
 10
-55.12368718216251
 20
741.97773598736
 30
0.0
 10
-55.11808915745916
 20
741.8529784596801
 30
0.0
 10
-55.06554438179173
 20
741.6823276291805
 30
0.0
 10
-54.98245452964298
 20
741.5402203530969
 30
0.0
 10
-54.89893761266914
 20
741.479705149073
 30
0.0
 10
-54.85860471973024
 20
741.4504805009107
 30
0.0
 11
-55.12664198598264
 21
742.0435868857977
 31
0.0
 11
-55.1090618847444
 21
741.847420937442
 31
0.0
 11
-55.0569941722901
 21
741.6791078892355
 31
0.0
 11
-54.97243023454354
 21
741.5450857239667
 31
0.0
 11
-54.85860471973024
 21
741.4504805009107
 31
0.0
  0
SPLINE
  5
196
330
1F
100
AcDbEntity
  8
0
  6
Continuous
 62
     7
100
AcDbSpline
210
0.0
220
0.0
230
1.0
 70
     8
 71
     3
 72
    13
 73
     9
 74
     7
 42
0.000000001
 43
0.0000000001
 44
0.00000001
 40
0.0
 40
0.0
 40
0.0
 40
0.0
 40
0.3659528222560911
 40
0.7516391977201229
 40
1.147581511881666
 40
1.54345779600781
 40
1.928951371105702
 40
2.294600948170771
 40
2.294600948170771
 40
2.294600948170771
 40
2.294600948170771
 10
-47.4023681597568
 20
744.7103560530469
 30
0.0
 10
-47.31026552449209
 20
744.7906094113397
 30
0.0
 10
-47.12109374338593
 20
744.9554437019348
 30
0.0
 10
-46.87707981313646
 20
745.2520176953896
 30
0.0
 10
-46.66045845404687
 20
745.5801439554436
 30
0.0
 10
-46.48438910443255
 20
745.9316265767002
 30
0.0
 10
-46.34939061006479
 20
746.2909775173739
 30
0.0
 10
-46.30116099151677
 20
746.5370419057529
 30
0.0
 10
-46.27768326391873
 20
746.656823788178
 30
0.0
 11
-47.4023681597568
 21
744.7103560530469
 31
0.0
 11
-47.13301714118399
 21
744.9580887663251
 31
0.0
 11
-46.88471621749247
 21
745.2532169290691
 31
0.0
 11
-46.66725993299508
 21
745.5840992065721
 31
0.0
 11
-46.48922583107003
 21
745.9376835557434
 31
0.0
 11
-46.35763681636468
 21
746.3000226629225
 31
0.0
 11
-46.27768326391873
 21
746.656823788178
 31
0.0
  0
SPLINE
  5
197
330
1F
100
AcDbEntity
  8
0
  6
Continuous
 62
     7
100
AcDbSpline
210
0.0
220
0.0
230
1.0
 70
     8
 71
     3
 72
    13
 73
     9
 74
     7
 42
0.000000001
 43
0.0000000001
 44
0.00000001
 40
0.0
 40
0.0
 40
0.0
 40
0.0
 40
0.3663279492268115
 40
0.7524198200710146
 40
1.14876791532388
 40
1.545018546208625
 40
1.930825847704277
 40
2.296706270183521
 40
2.296706270183521
 40
2.296706270183521
 40
2.296706270183521
 10
-46.87203807386692
 20
744.4034144743196
 30
0.0
 10
-46.77984428152629
 20
744.4837543238237
 30
0.0
 10
-46.59048271876367
 20
744.6487684846213
 30
0.0
 10
-46.3462719230598
 20
744.9456981357683
 30
0.0
 10
-46.12952425782999
 20
745.2742170498137
 30
0.0
 10
-45.95343183561341
 20
745.6260977533981
 30
0.0
 10
-45.81850913286619
 20
745.9858106350432
 30
0.0
 10
-45.77043696549583
 20
746.2320922558855
 30
0.0
 10
-45.74703807386698
 20
746.3519686644006
 30
0.0
 11
-46.87203807386692
 21
744.4034144743196
 31
0.0
 11
-46.60242763867972
 21
744.6514192725366
 31
0.0
 11
-46.35391935372272
 21
744.9469028862476
 31
0.0
 11
-46.13633541018987
 21
745.2781868146508
 31
0.0
 11
-45.95827542998376
 21
745.6321772199201
 31
0.0
 11
-45.82677728801205
 21
745.9948830421646
 31
0.0
 11
-45.74703807386698
 21
746.3519686644006
 31
0.0
  0
SPLINE
  5
198
330
1F
100
AcDbEntity
  8
0
  6
Continuous
 62
     7
100
AcDbSpline
210
0.0
220
0.0
230
1.0
 70
     8
 71
     3
 72
    19
 73
    15
 74
    13
 42
0.000000001
 43
0.0000000001
 44
0.00000001
 40
0.0
 40
0.0
 40
0.0
 40
0.0
 40
0.1990104244666824
 40
0.4216165011537982
 40
0.6800439034897388
 40
0.9744608823693124
 40
1.29681567177291
 40
1.63424852295473
 40
1.971681374136539
 40
2.29403616354019
 40
2.588453142419811
 40
2.846880544755677
 40
3.069486621442833
 40
3.268497045909529
 40
3.268497045909529
 40
3.268497045909529
 40
3.268497045909529
 10
-110.7200404334675
 20
709.1193008749636
 30
0.0
 10
-110.7729927913012
 20
709.1609391393421
 30
0.0
 10
-110.8851757847208
 20
709.2491525168746
 30
0.0
 10
-110.9710990279789
 20
709.4682598356726
 30
0.0
 10
-110.9984761641024
 20
709.726205423501
 30
0.0
 10
-110.963231317706
 20
710.0183163634975
 30
0.0
 10
-110.8701985708182
 20
710.3237389443593
 30
0.0
 10
-110.7248655804902
 20
710.6241309127004
 30
0.0
 10
-110.5367959981589
 20
710.8997880274696
 30
0.0
 10
-110.3183110635189
 20
711.1326020696349
 30
0.0
 10
-110.0825815046053
 20
711.3086775520776
 30
0.0
 10
-109.8452812902737
 20
711.4134346145638
 30
0.0
 10
-109.6124926610553
 20
711.4480795996201
 30
0.0
 10
-109.4801197037043
 20
711.3947502066891
 30
0.0
 10
-109.4176373348873
 20
711.3695777843259
 30
0.0
 11
-110.7200404334675
 21
709.1193008749636
 31
0.0
 11
-110.8657718858351
 21
709.2548276056609
 31
0.0
 11
-110.9571940815884
 21
709.4577942302444
 31
0.0
 11
-110.9880758811736
 21
709.7143698235155
 31
0.0
 11
-110.956313671971
 21
710.0070685046394
 31
0.0
 11
-110.8640710655142
 21
710.3159437374698
 31
0.0
 11
-110.7176351096614
 21
710.6199460999012
 31
0.0
 11
-110.5269844290704
 21
710.8983581030919
 31
0.0
 11
-110.3051121226809
 21
711.1322069593205
 31
0.0
 11
-110.0671380638565
 21
711.3055554614535
 31
0.0
 11
-109.8292799122503
 21
711.4065911993016
 31
0.0
 11
-109.6077474320742
 21
711.4284276092214
 31
0.0
 11
-109.4176373348873
 21
711.3695777843259
 31
0.0
  0
SPLINE
  5
199
330
1F
100
AcDbEntity
  8
0
  6
Continuous
 62
     7
100
AcDbSpline
210
0.0
220
0.0
230
1.0
 70
     8
 71
     3
 72
    17
 73
    13
 74
    11
 42
0.000000001
 43
0.0000000001
 44
0.00000001
 40
0.0
 40
0.0
 40
0.0
 40
0.0
 40
0.2636273818676357
 40
0.5508863347548509
 40
0.8527574909033091
 40
1.158445693809611
 40
1.456721882380889
 40
1.737210455944967
 40
1.991784927986323
 40
2.216282355635331
 40
2.412731361893837
 40
2.591520179091764
 40
2.591520179091764
 40
2.591520179091764
 40
2.591520179091764
 10
-109.1496000686349
 20
710.7764713994388
 30
0.0
 10
-109.1550315561071
 20
710.6885405742373
 30
0.0
 10
-109.1663814220988
 20
710.5047968018694
 30
0.0
 10
-109.245758590394
 20
710.2297976231486
 30
0.0
 10
-109.3644888799465
 20
709.9555700582212
 30
0.0
 10
-109.5220854276924
 20
709.6968019695219
 30
0.0
 10
-109.7085426464375
 20
709.4671764833262
 30
0.0
 10
-109.9143369669233
 20
709.2790936158227
 30
0.0
 10
-110.1293407541724
 20
709.1416218851641
 30
0.0
 10
-110.3419978644583
 20
709.0646735605944
 30
0.0
 10
-110.5476551883906
 20
709.0466689635966
 30
0.0
 10
-110.6644103404668
 20
709.0958619733176
 30
0.0
 10
-110.7200404334675
 20
709.1193008749636
 30
0.0
 11
-109.1496000686349
 21
710.7764713994388
 31
0.0
 11
-109.1750385576903
 21
710.5140742267859
 31
0.0
 11
-109.2499455897001
 21
710.2367537596385
 31
0.0
 11
-109.3701757907425
 21
709.9598586646256
 31
0.0
 11
-109.5290744104731
 21
709.6987140570923
 31
0.0
 11
-109.7178472966612
 21
709.4677736274904
 31
0.0
 11
-109.9260462693131
 21
709.2798187725292
 31
0.0
 11
-110.1421483642201
 21
709.1452526323828
 31
0.0
 11
-110.3541930504923
 21
709.0715224113304
 31
0.0
 11
-110.5504442808878
 21
709.0627094537463
 31
0.0
 11
-110.7200404334675
 21
709.1193008749636
 31
0.0
  0
SPLINE
  5
19A
330
1F
100
AcDbEntity
  8
0
  6
Continuous
 62
     7
100
AcDbSpline
210
0.0
220
0.0
230
1.0
 70
     8
 71
     3
 72
    11
 73
     7
 74
     5
 42
0.000000001
 43
0.0000000001
 44
0.00000001
 40
0.0
 40
0.0
 40
0.0
 40
0.0
 40
0.1480080919612034
 40
0.3064789069704468
 40
0.4826615621837697
 40
0.679613687379047
 40
0.679613687379047
 40
0.679613687379047
 40
0.679613687379047
 10
-109.4176373348873
 20
711.3695777843259
 30
0.0
 10
-109.3773044419484
 20
711.3403531361637
 30
0.0
 10
-109.2937875249744
 20
711.2798379321399
 30
0.0
 10
-109.2106976728258
 20
711.1377306560561
 30
0.0
 10
-109.1581528971584
 20
710.9670798255565
 30
0.0
 10
-109.1525548724551
 20
710.8423222978766
 30
0.0
 10
-109.1496000686349
 20
710.7764713994388
 30
0.0
 11
-109.4176373348873
 21
711.3695777843259
 31
0.0
 11
-109.3038118200739
 21
711.27497256127
 31
0.0
 11
-109.2192478823275
 21
711.1409503960011
 31
0.0
 11
-109.1671801698732
 21
710.9726373477945
 31
0.0
 11
-109.1496000686349
 21
710.7764713994388
 31
0.0
  0
SPLINE
  5
19B
330
1F
100
AcDbEntity
  8
0
  6
Continuous
 62
     7
100
AcDbSpline
210
0.0
220
0.0
230
1.0
 70
     8
 71
     3
 72
     9
 73
     5
 74
     3
 42
0.000000001
 43
0.0000000001
 44
0.00000001
 40
0.0
 40
0.0
 40
0.0
 40
0.0
 40
0.1651434843036302
 40
0.3481550999341519
 40
0.3481550999341519
 40
0.3481550999341519
 40
0.3481550999341519
 10
-109.7396735111803
 20
711.4247872916626
 30
0.0
 10
-109.7223205204409
 20
711.3722355753443
 30
0.0
 10
-109.6857370061017
 20
711.2614461677215
 30
0.0
 10
-109.6819308779354
 20
711.1447536856922
 30
0.0
 10
-109.6799301545248
 20
711.0834129781662
 30
0.0
 11
-109.7396735111803
 21
711.4247872916626
 31
0.0
 11
-109.6949893718655
 21
711.2658039641796
 31
0.0
 11
-109.6799301545248
 21
711.0834129781662
 31
0.0
  0
SPLINE
  5
19C
330
1F
100
AcDbEntity
  8
0
  6
Continuous
 62
     7
100
AcDbSpline
210
0.0
220
0.0
230
1.0
 70
     8
 71
     3
 72
    15
 73
    11
 74
     9
 42
0.000000001
 43
0.0000000001
 44
0.00000001
 40
0.0
 40
0.0
 40
0.0
 40
0.0
 40
0.2710347107723014
 40
0.5667571249363046
 40
0.8773037987738268
 40
1.1909204504363
 40
1.495485147063804
 40
1.77998270707429
 40
2.0361292047736
 40
2.260408422398678
 40
2.260408422398678
 40
2.260408422398678
 40
2.260408422398678
 10
-109.6799301545248
 20
711.0834129781662
 30
0.0
 10
-109.6856674842657
 20
710.9930102078537
 30
0.0
 10
-109.6976647548051
 20
710.8039701635994
 30
0.0
 10
-109.7812281084863
 20
710.521523110033
 30
0.0
 10
-109.9058698902108
 20
710.2406923902133
 30
0.0
 10
-110.0708223676743
 20
709.9775004171246
 30
0.0
 10
-110.2649700775825
 20
709.7458909677598
 30
0.0
 10
-110.4785209760007
 20
709.5613761592954
 30
0.0
 10
-110.6985203229236
 20
709.4255084679182
 30
0.0
 10
-110.8551937882472
 20
709.3883703072593
 30
0.0
 10
-110.9283343430644
 20
709.3710329463543
 30
0.0
 11
-109.6799301545248
 21
711.0834129781662
 31
0.0
 11
-109.7067442227639
 21
710.8137079197016
 31
0.0
 11
-109.7856215240755
 21
710.528698946399
 31
0.0
 11
-109.9119609568021
 21
710.2450132324407
 31
0.0
 11
-110.078391468437
 21
709.9792007248968
 31
0.0
 11
-110.2752039944735
 21
709.746769049897
 31
0.0
 11
-110.4909163370856
 21
709.5612776853795
 31
0.0
 11
-110.712944108156
 21
709.4335486671341
 31
0.0
 11
-110.9283343430644
 21
709.3710329463543
 31
0.0
  0
SPLINE
  5
19D
330
1F
100
AcDbEntity
  8
0
  6
Continuous
 62
     7
100
AcDbSpline
210
0.0
220
0.0
230
1.0
 70
     8
 71
     3
 72
    11
 73
     7
 74
     5
 42
0.000000001
 43
0.0000000001
 44
0.00000001
 40
0.0
 40
0.0
 40
0.0
 40
0.0
 40
0.2116323332618495
 40
0.4060580662571172
 40
0.5870720112164846
 40
0.7606548229000272
 40
0.7606548229000272
 40
0.7606548229000272
 40
0.7606548229000272
 10
-117.4042039807506
 20
703.5811889764209
 30
0.0
 10
-117.4717651131077
 20
703.5601149842659
 30
0.0
 10
-117.6013943766413
 20
703.5196804184027
 30
0.0
 10
-117.7979375975565
 20
703.50572865448
 30
0.0
 10
-117.9821403222643
 20
703.5287204354729
 30
0.0
 10
-118.0892988232011
 20
703.5802099159347
 30
0.0
 10
-118.1417552334123
 20
703.6054151413316
 30
0.0
 11
-117.4042039807506
 21
703.5811889764209
 31
0.0
 11
-117.6086022473769
 21
703.5263292182276
 31
0.0
 11
-117.8025006469321
 21
703.5120191836804
 31
0.0
 11
-117.9815553811722
 21
703.5385795182451
 31
0.0
 11
-118.1417552334123
 21
703.6054151413316
 31
0.0
  0
SPLINE
  5
19E
330
1F
100
AcDbEntity
  8
0
  6
Continuous
 62
     7
100
AcDbSpline
210
0.0
220
0.0
230
1.0
 70
     8
 71
     3
 72
    13
 73
     9
 74
     7
 42
0.000000001
 43
0.0000000001
 44
0.00000001
 40
0.0
 40
0.0
 40
0.0
 40
0.0
 40
0.3663279492267764
 40
0.7524198200709933
 40
1.148767915323851
 40
1.545018546208704
 40
1.930825847704253
 40
2.296706270183603
 40
2.296706270183603
 40
2.296706270183603
 40
2.296706270183603
 10
-47.40063264328234
 20
747.3019570683048
 30
0.0
 10
-47.492826435623
 20
747.2216172188007
 30
0.0
 10
-47.68218799838566
 20
747.0566030580032
 30
0.0
 10
-47.92639879408956
 20
746.7596734068563
 30
0.0
 10
-48.14314645931935
 20
746.4311544928106
 30
0.0
 10
-48.31923888153587
 20
746.0792737892264
 30
0.0
 10
-48.45416158428321
 20
745.7195609075811
 30
0.0
 10
-48.50223375165351
 20
745.4732792867386
 30
0.0
 10
-48.52563264328234
 20
745.3534028782237
 30
0.0
 11
-47.40063264328234
 21
747.3019570683048
 31
0.0
 11
-47.6702430784696
 21
747.0539522700878
 31
0.0
 11
-47.91875136342662
 21
746.7584686563769
 31
0.0
 11
-48.13633530695945
 21
746.4271847279737
 31
0.0
 11
-48.31439528716558
 21
746.0731943227042
 31
0.0
 11
-48.44589342913731
 21
745.7104885004599
 31
0.0
 11
-48.52563264328234
 21
745.3534028782237
 31
0.0
  0
DIMENSION
  5
1AC
330
1F
100
AcDbEntity
  8
1
100
AcDbDimension
  2
*D4
 10
-487.800566452597
 20
541.8813728196707
 30
0.0
 11
-493.9601460187437
 21
551.2229329011569
 31
0.0
 70
    33
  1
<>
 71
     5
 42
-1.0
 53
44.9999999999995
  3
ME10_DIM_10
100
AcDbAlignedDimension
 13
-459.743918368395
 23
520.1886857661472
 33
0.0
 14
-462.9258988837345
 24
517.0067052508077
 34
0.0
  0
DIMENSION
  5
1B7
330
1F
100
AcDbEntity
  8
1
100
AcDbDimension
  2
*D5
 10
-494.9963727593313
 20
516.2591596417437
 30
0.0
 11
-505.5068832698418
 21
397.2591596417437
 31
0.0
 70
    33
  1
<>
 71
     5
 42
-1.0
 53
-89.99999999999999
  3
ME10_DIM_11
100
AcDbAlignedDimension
 13
-465.396372759331
 23
278.2591596417438
 33
0.0
 14
-465.3963727593311
 24
516.2591596417437
 34
0.0
  0
DIMENSION
  5
1C2
330
1F
100
AcDbEntity
  8
1
100
AcDbDimension
  2
*D6
 10
-458.9963727593312
 20
552.2591596417437
 30
0.0
 11
-359.9963727593311
 21
562.7696701522542
 31
0.0
 70
    33
  1
<>
 71
     5
 42
-1.0
 53
0.00013888888889
  3
ME10_DIM_12
100
AcDbAlignedDimension
 13
-260.996372759331
 23
522.6591596417439
 33
0.0
 14
-458.9963727593311
 24
522.6591596417439
 34
0.0
  0
DIMENSION
  5
1CD
330
1F
100
AcDbEntity
  8
1
100
AcDbDimension
  2
*D7
 10
-464.9963727593312
 20
242.2591596417438
 30
0.0
 11
-359.9963727593311
 21
252.7696701522543
 31
0.0
 70
    33
  1
<>
 71
     5
 42
-1.0
 53
0.00013888888889
  3
ME10_DIM_13
100
AcDbAlignedDimension
 13
-254.996372759331
 23
272.2591596417437
 33
0.0
 14
-464.9963727593311
 24
272.2591596417438
 34
0.0
  0
DIMENSION
  5
1DA
330
1F
100
AcDbEntity
  8
1
100
AcDbDimension
  2
*D8
 10
-224.9963727593311
 20
645.1591596417438
 30
0.0
 11
-235.957333720292
 21
671.2511752789487
 31
0.0
 70
    32
  1
<>
 71
     5
 42
-1.0
 53
90.0
  3
ME10_DIM_14
100
AcDbAlignedDimension
 13
-254.996372759331
 23
643.6591596417438
 33
0.0
 14
-254.996372759331
 24
645.1591596417438
 34
0.0
 50
90.0
100
AcDbRotatedDimension
  0
DIMENSION
  5
1E5
330
1F
100
AcDbEntity
  8
1
100
AcDbDimension
  2
*D9
 10
-224.9963727593311
 20
522.2591596417437
 30
0.0
 11
-235.5068832698416
 21
397.2591596417437
 31
0.0
 70
    33
  1
<>
 71
     5
 42
-1.0
 53
90.0
  3
ME10_DIM_15
100
AcDbAlignedDimension
 13
-254.996372759331
 23
272.2591596417437
 33
0.0
 14
-254.996372759331
 24
522.2591596417437
 34
0.0
  0
ENDSEC
  0
SECTION
  2
OBJECTS
  0
DICTIONARY
  5
C
330
0
100
AcDbDictionary
281
     1
  3
ACAD_GROUP
350
D
  3
ACAD_LAYOUT
350
1A
  3
ACAD_MATERIAL
350
43
  3
ACAD_MLEADERSTYLE
350
1E8
  3
ACAD_MLINESTYLE
350
17
  3
ACAD_PLOTSETTINGS
350
19
  3
ACAD_PLOTSTYLENAME
350
E
  3
ACAD_SCALELIST
350
47
  3
ACAD_VISUALSTYLE
350
2A
  3
AcDbVariableDictionary
350
1E6
  0
DICTIONARY
  5
D
102
{ACAD_REACTORS
330
C
102
}
330
C
100
AcDbDictionary
281
     1
  0
DICTIONARY
  5
1A
102
{ACAD_REACTORS
330
C
102
}
330
C
100
AcDbDictionary
281
     1
  3
Layout1
350
1E
  3
Layout2
350
26
  3
Model
350
22
  0
DICTIONARY
  5
43
102
{ACAD_REACTORS
330
C
102
}
330
C
100
AcDbDictionary
281
     1
  3
ByBlock
350
45
  3
ByLayer
350
44
  3
Global
350
46
  0
DICTIONARY
  5
1E8
102
{ACAD_REACTORS
330
C
102
}
330
C
100
AcDbDictionary
281
     1
  0
DICTIONARY
  5
17
102
{ACAD_REACTORS
330
C
102
}
330
C
100
AcDbDictionary
281
     1
  3
Standard
350
18
  0
DICTIONARY
  5
19
102
{ACAD_REACTORS
330
C
102
}
330
C
100
AcDbDictionary
281
     1
  0
ACDBDICTIONARYWDFLT
  5
E
102
{ACAD_REACTORS
330
C
102
}
330
C
100
AcDbDictionary
281
     1
  3
Normal
350
F
100
AcDbDictionaryWithDefault
340
F
  0
DICTIONARY
  5
47
102
{ACAD_REACTORS
330
C
102
}
330
C
100
AcDbDictionary
281
     1
  3
A0
350
48
  3
A1
350
49
  3
A2
350
4A
  3
A3
350
4B
  3
A4
350
4C
  3
A5
350
4D
  3
A6
350
4E
  3
A7
350
4F
  3
A8
350
50
  3
A9
350
51
  3
B0
350
52
  3
B1
350
53
  3
B2
350
54
  3
B3
350
55
  3
B4
350
56
  3
B5
350
57
  3
B6
350
58
  3
B7
350
59
  3
B8
350
5A
  3
B9
350
5B
  3
C0
350
5C
  3
C1
350
5D
  3
C2
350
5E
  3
C3
350
5F
  3
C4
350
60
  3
C5
350
61
  3
C6
350
62
  3
C7
350
63
  3
C8
350
64
  3
C9
350
65
  3
D0
350
66
  3
D1
350
67
  3
D2
350
68
  0
DICTIONARY
  5
2A
102
{ACAD_REACTORS
330
C
102
}
330
C
100
AcDbDictionary
281
     1
  3
2dWireframe
350
2F
  3
Basic
350
32
  3
Brighten
350
36
  3
ColorChange
350
3A
  3
Conceptual
350
34
  3
Dim
350
35
  3
EdgeColorOff
350
3D
  3
Facepattern
350
39
  3
Flat
350
2B
  3
FlatWithEdges
350
2C
  3
Gouraud
350
2D
  3
GouraudWithEdges
350
2E
  3
Hidden
350
31
  3
JitterOff
350
3B
  3
Linepattern
350
38
  3
OverhangOff
350
3C
  3
Realistic
350
33
  3
Shaded
350
42
  3
Shaded with edges
350
41
  3
Shades of Gray
350
3E
  3
Sketchy
350
3F
  3
Thicken
350
37
  3
Wireframe
350
30
  3
X-Ray
350
40
  0
DICTIONARY
  5
1E6
102
{ACAD_REACTORS
330
C
102
}
330
C
100
AcDbDictionary
281
     1
  3
CANNOSCALE
350
1ED
  3
DIMASSOC
350
1EB
  3
HIDETEXT
350
1EC
  3
MSLTSCALE
350
1EE
  0
LAYOUT
  5
1E
102
{ACAD_REACTORS
330
1A
102
}
330
1A
100
AcDbPlotSettings
  1

  2
none_device
  4

  6

 40
0.0
 41
0.0
 42
0.0
 43
0.0
 44
0.0
 45
0.0
 46
0.0
 47
0.0
 48
0.0
 49
0.0
140
0.0
141
0.0
142
1.0
143
1.0
 70
   688
 72
     0
 73
     0
 74
     5
  7

 75
    16
147
1.0
148
0.0
149
0.0
100
AcDbLayout
  1
Layout1
 70
     1
 71
     1
 10
0.0
 20
0.0
 11
12.0
 21
9.0
 12
0.0
 22
0.0
 32
0.0
 14
1.00000000000000E+20
 24
1.00000000000000E+20
 34
1.00000000000000E+20
 15
-1.00000000000000E+20
 25
-1.00000000000000E+20
 35
-1.00000000000000E+20
146
0.0
 13
0.0
 23
0.0
 33
0.0
 16
1.0
 26
0.0
 36
0.0
 17
0.0
 27
1.0
 37
0.0
 76
     0
330
1B
  0
LAYOUT
  5
26
102
{ACAD_REACTORS
330
1A
102
}
330
1A
100
AcDbPlotSettings
  1

  2
none_device
  4

  6

 40
0.0
 41
0.0
 42
0.0
 43
0.0
 44
0.0
 45
0.0
 46
0.0
 47
0.0
 48
0.0
 49
0.0
140
0.0
141
0.0
142
1.0
143
1.0
 70
   688
 72
     0
 73
     0
 74
     5
  7

 75
    16
147
1.0
148
0.0
149
0.0
100
AcDbLayout
  1
Layout2
 70
     1
 71
     2
 10
0.0
 20
0.0
 11
0.0
 21
0.0
 12
0.0
 22
0.0
 32
0.0
 14
0.0
 24
0.0
 34
0.0
 15
0.0
 25
0.0
 35
0.0
146
0.0
 13
0.0
 23
0.0
 33
0.0
 16
1.0
 26
0.0
 36
0.0
 17
0.0
 27
1.0
 37
0.0
 76
     0
330
23
  0
LAYOUT
  5
22
102
{ACAD_REACTORS
330
1A
102
}
330
1A
100
AcDbPlotSettings
  1

  2
none_device
  4
Letter_(8.50_x_11.00_Inches)
  6

 40
6.35
 41
6.35
 42
6.35000508
 43
6.35000508
 44
215.9
 45
279.4
 46
0.0
 47
0.0
 48
0.0
 49
0.0
140
0.0
141
0.0
142
1.0
143
1.0
 70
  1712
 72
     0
 73
     0
 74
     0
  7

 75
     0
147
1.0
148
0.0
149
0.0
100
AcDbLayout
  1
Model
 70
     1
 71
     0
 10
0.0
 20
0.0
 11
12.0
 21
9.0
 12
0.0
 22
0.0
 32
0.0
 14
-630.6306306306309
 24
0.0
 34
0.0
 15
0.0
 25
891.8918918918921
 35
0.0
146
0.0
 13
0.0
 23
0.0
 33
0.0
 16
1.0
 26
0.0
 36
0.0
 17
0.0
 27
1.0
 37
0.0
 76
     0
330
1F
331
29
  0
MATERIAL
  5
45
102
{ACAD_REACTORS
330
43
102
}
102
{ACAD_XDICTIONARY
360
221
102
}
330
43
100
AcDbMaterial
  1
ByBlock
  0
MATERIAL
  5
44
102
{ACAD_REACTORS
330
43
102
}
102
{ACAD_XDICTIONARY
360
21F
102
}
330
43
100
AcDbMaterial
  1
ByLayer
  0
MATERIAL
  5
46
102
{ACAD_REACTORS
330
43
102
}
102
{ACAD_XDICTIONARY
360
223
102
}
330
43
100
AcDbMaterial
  1
Global
  0
MLINESTYLE
  5
18
102
{ACAD_REACTORS
330
17
102
}
330
17
100
AcDbMlineStyle
  2
Standard
 70
     0
  3

 62
   256
 51
90.0
 52
90.0
 71
     2
 49
0.5
 62
   256
  6
BYLAYER
 49
-0.5
 62
   256
  6
BYLAYER
  0
ACDBPLACEHOLDER
  5
F
102
{ACAD_REACTORS
330
E
102
}
330
E
  0
SCALE
  5
48
102
{ACAD_REACTORS
330
47
102
}
330
47
100
AcDbScale
 70
     0
300
1:1
140
1.0
141
1.0
290
     1
  0
SCALE
  5
49
102
{ACAD_REACTORS
330
47
102
}
330
47
100
AcDbScale
 70
     0
300
1:2
140
1.0
141
2.0
290
     0
  0
SCALE
  5
4A
102
{ACAD_REACTORS
330
47
102
}
330
47
100
AcDbScale
 70
     0
300
1:4
140
1.0
141
4.0
290
     0
  0
SCALE
  5
4B
102
{ACAD_REACTORS
330
47
102
}
330
47
100
AcDbScale
 70
     0
300
1:5
140
1.0
141
5.0
290
     0
  0
SCALE
  5
4C
102
{ACAD_REACTORS
330
47
102
}
330
47
100
AcDbScale
 70
     0
300
1:8
140
1.0
141
8.0
290
     0
  0
SCALE
  5
4D
102
{ACAD_REACTORS
330
47
102
}
330
47
100
AcDbScale
 70
     0
300
1:10
140
1.0
141
10.0
290
     0
  0
SCALE
  5
4E
102
{ACAD_REACTORS
330
47
102
}
330
47
100
AcDbScale
 70
     0
300
1:16
140
1.0
141
16.0
290
     0
  0
SCALE
  5
4F
102
{ACAD_REACTORS
330
47
102
}
330
47
100
AcDbScale
 70
     0
300
1:20
140
1.0
141
20.0
290
     0
  0
SCALE
  5
50
102
{ACAD_REACTORS
330
47
102
}
330
47
100
AcDbScale
 70
     0
300
1:30
140
1.0
141
30.0
290
     0
  0
SCALE
  5
51
102
{ACAD_REACTORS
330
47
102
}
330
47
100
AcDbScale
 70
     0
300
1:40
140
1.0
141
40.0
290
     0
  0
SCALE
  5
52
102
{ACAD_REACTORS
330
47
102
}
330
47
100
AcDbScale
 70
     0
300
1:50
140
1.0
141
50.0
290
     0
  0
SCALE
  5
53
102
{ACAD_REACTORS
330
47
102
}
330
47
100
AcDbScale
 70
     0
300
1:100
140
1.0
141
100.0
290
     0
  0
SCALE
  5
54
102
{ACAD_REACTORS
330
47
102
}
330
47
100
AcDbScale
 70
     0
300
2:1
140
2.0
141
1.0
290
     0
  0
SCALE
  5
55
102
{ACAD_REACTORS
330
47
102
}
330
47
100
AcDbScale
 70
     0
300
4:1
140
4.0
141
1.0
290
     0
  0
SCALE
  5
56
102
{ACAD_REACTORS
330
47
102
}
330
47
100
AcDbScale
 70
     0
300
8:1
140
8.0
141
1.0
290
     0
  0
SCALE
  5
57
102
{ACAD_REACTORS
330
47
102
}
330
47
100
AcDbScale
 70
     0
300
10:1
140
10.0
141
1.0
290
     0
  0
SCALE
  5
58
102
{ACAD_REACTORS
330
47
102
}
330
47
100
AcDbScale
 70
     0
300
100:1
140
100.0
141
1.0
290
     0
  0
SCALE
  5
59
102
{ACAD_REACTORS
330
47
102
}
330
47
100
AcDbScale
 70
     0
300
1/128" = 1'-0"
140
0.0078125
141
12.0
290
     0
  0
SCALE
  5
5A
102
{ACAD_REACTORS
330
47
102
}
330
47
100
AcDbScale
 70
     0
300
1/64" = 1'-0"
140
0.015625
141
12.0
290
     0
  0
SCALE
  5
5B
102
{ACAD_REACTORS
330
47
102
}
330
47
100
AcDbScale
 70
     0
300
1/32" = 1'-0"
140
0.03125
141
12.0
290
     0
  0
SCALE
  5
5C
102
{ACAD_REACTORS
330
47
102
}
330
47
100
AcDbScale
 70
     0
300
1/16" = 1'-0"
140
0.0625
141
12.0
290
     0
  0
SCALE
  5
5D
102
{ACAD_REACTORS
330
47
102
}
330
47
100
AcDbScale
 70
     0
300
3/32" = 1'-0"
140
0.09375
141
12.0
290
     0
  0
SCALE
  5
5E
102
{ACAD_REACTORS
330
47
102
}
330
47
100
AcDbScale
 70
     0
300
1/8" = 1'-0"
140
0.125
141
12.0
290
     0
  0
SCALE
  5
5F
102
{ACAD_REACTORS
330
47
102
}
330
47
100
AcDbScale
 70
     0
300
3/16" = 1'-0"
140
0.1875
141
12.0
290
     0
  0
SCALE
  5
60
102
{ACAD_REACTORS
330
47
102
}
330
47
100
AcDbScale
 70
     0
300
1/4" = 1'-0"
140
0.25
141
12.0
290
     0
  0
SCALE
  5
61
102
{ACAD_REACTORS
330
47
102
}
330
47
100
AcDbScale
 70
     0
300
3/8" = 1'-0"
140
0.375
141
12.0
290
     0
  0
SCALE
  5
62
102
{ACAD_REACTORS
330
47
102
}
330
47
100
AcDbScale
 70
     0
300
1/2" = 1'-0"
140
0.5
141
12.0
290
     0
  0
SCALE
  5
63
102
{ACAD_REACTORS
330
47
102
}
330
47
100
AcDbScale
 70
     0
300
3/4" = 1'-0"
140
0.75
141
12.0
290
     0
  0
SCALE
  5
64
102
{ACAD_REACTORS
330
47
102
}
330
47
100
AcDbScale
 70
     0
300
1" = 1'-0"
140
1.0
141
12.0
290
     0
  0
SCALE
  5
65
102
{ACAD_REACTORS
330
47
102
}
330
47
100
AcDbScale
 70
     0
300
1-1/2" = 1'-0"
140
1.5
141
12.0
290
     0
  0
SCALE
  5
66
102
{ACAD_REACTORS
330
47
102
}
330
47
100
AcDbScale
 70
     0
300
3" = 1'-0"
140
3.0
141
12.0
290
     0
  0
SCALE
  5
67
102
{ACAD_REACTORS
330
47
102
}
330
47
100
AcDbScale
 70
     0
300
6" = 1'-0"
140
6.0
141
12.0
290
     0
  0
SCALE
  5
68
102
{ACAD_REACTORS
330
47
102
}
330
47
100
AcDbScale
 70
     0
300
1'-0" = 1'-0"
140
12.0
141
12.0
290
     0
  0
VISUALSTYLE
  5
2F
102
{ACAD_REACTORS
330
2A
102
}
102
{ACAD_XDICTIONARY
360
1F7
102
}
330
2A
100
AcDbVisualStyle
  2
2dWireframe
 70
     4
 71
     0
 72
     2
 73
     0
 90
        0
 40
0.6
 41
30.0
 62
     5
 63
     7
 74
     1
 91
        4
 64
     7
 65
   257
 75
     1
175
     1
 42
1.0
 92
        0
 66
   257
 43
1.0
 76
     1
 77
     6
 78
     2
 67
     7
 79
     5
170
     0
171
     0
290
     0
174
     0
 93
        1
 44
0.0
173
     0
291
     0
 45
0.0
1001
ACAD
1000
AcDbSavedByObjectVersion
1070
     0
  0
VISUALSTYLE
  5
32
102
{ACAD_REACTORS
330
2A
102
}
102
{ACAD_XDICTIONARY
360
1FD
102
}
330
2A
100
AcDbVisualStyle
  2
Basic
 70
     7
 71
     1
 72
     0
 73
     1
 90
        0
 40
0.6
 41
30.0
 62
     5
 63
     7
 74
     0
 91
        4
 64
     7
 65
   257
 75
     1
175
     1
 42
1.0
 92
        8
 66
     7
 43
1.0
 76
     1
 77
     6
 78
     2
 67
     7
 79
     5
170
     0
171
     0
290
     0
174
     0
 93
        1
 44
0.0
173
     0
291
     1
 45
0.0
1001
ACAD
1000
AcDbSavedByObjectVersion
1070
     0
  0
VISUALSTYLE
  5
36
102
{ACAD_REACTORS
330
2A
102
}
102
{ACAD_XDICTIONARY
360
205
102
}
330
2A
100
AcDbVisualStyle
  2
Brighten
 70
    12
 71
     2
 72
     2
 73
     0
 90
        0
 40
0.6
 41
30.0
 62
     5
 63
     7
 74
     1
 91
        4
 64
     7
 65
   257
 75
     1
175
     1
 42
1.0
 92
        8
 66
     7
 43
1.0
 76
     1
 77
     6
 78
     2
 67
     7
 79
     5
170
     0
171
     0
290
     0
174
     0
 93
        1
 44
50.0
173
     0
291
     1
 45
0.0
1001
ACAD
1000
AcDbSavedByObjectVersion
1070
     0
  0
VISUALSTYLE
  5
3A
102
{ACAD_REACTORS
330
2A
102
}
102
{ACAD_XDICTIONARY
360
20D
102
}
330
2A
100
AcDbVisualStyle
  2
ColorChange
 70
    16
 71
     2
 72
     2
 73
     3
 90
        0
 40
0.6
 41
30.0
 62
     5
 63
     8
 74
     1
 91
        4
 64
     7
 65
   257
 75
     1
175
     1
 42
1.0
 92
        8
 66
     8
 43
1.0
 76
     1
 77
     6
 78
     2
 67
     7
 79
     5
170
     0
171
     0
290
     0
174
     0
 93
        1
 44
0.0
173
     0
291
     1
 45
0.0
1001
ACAD
1000
AcDbSavedByObjectVersion
1070
     0
  0
VISUALSTYLE
  5
34
102
{ACAD_REACTORS
330
2A
102
}
102
{ACAD_XDICTIONARY
360
201
102
}
330
2A
100
AcDbVisualStyle
  2
Conceptual
 70
     9
 71
     3
 72
     2
 73
     0
 90
        0
 40
0.6
 41
30.0
 62
     5
 63
     7
 74
     2
 91
        2
 64
     7
 65
   257
 75
     1
175
     1
 42
179.0
 92
        8
 66
     7
 43
1.0
 76
     1
 77
     6
 78
     2
 67
     7
 79
     3
170
     0
171
     0
290
     0
174
     0
 93
        1
 44
0.0
173
     0
291
     0
 45
0.0
1001
ACAD
1000
AcDbSavedByObjectVersion
1070
     0
  0
VISUALSTYLE
  5
35
102
{ACAD_REACTORS
330
2A
102
}
102
{ACAD_XDICTIONARY
360
203
102
}
330
2A
100
AcDbVisualStyle
  2
Dim
 70
    11
 71
     2
 72
     2
 73
     0
 90
        0
 40
0.6
 41
30.0
 62
     5
 63
     7
 74
     1
 91
        4
 64
     7
 65
   257
 75
     1
175
     1
 42
1.0
 92
        8
 66
     7
 43
1.0
 76
     1
 77
     6
 78
     2
 67
     7
 79
     5
170
     0
171
     0
290
     0
174
     0
 93
        1
 44
-50.0
173
     0
291
     1
 45
0.0
1001
ACAD
1000
AcDbSavedByObjectVersion
1070
     0
  0
VISUALSTYLE
  5
3D
102
{ACAD_REACTORS
330
2A
102
}
102
{ACAD_XDICTIONARY
360
213
102
}
330
2A
100
AcDbVisualStyle
  2
EdgeColorOff
 70
    22
 71
     2
 72
     2
 73
     0
 90
        0
 40
0.6
 41
30.0
 62
     5
 63
     7
 74
     1
 91
        4
 64
     7
 65
   257
 75
     1
175
     1
 42
1.0
 92
        8
 66
     7
 43
1.0
 76
     1
 77
     6
 78
     2
 67
     7
 79
     5
170
     0
171
     0
290
     0
174
     0
 93
        1
 44
0.0
173
     0
291
     1
 45
0.0
1001
ACAD
1000
AcDbSavedByObjectVersion
1070
     0
  0
VISUALSTYLE
  5
39
102
{ACAD_REACTORS
330
2A
102
}
102
{ACAD_XDICTIONARY
360
20B
102
}
330
2A
100
AcDbVisualStyle
  2
Facepattern
 70
    15
 71
     2
 72
     2
 73
     0
 90
        0
 40
0.6
 41
30.0
 62
     5
 63
     7
 74
     1
 91
        4
 64
     7
 65
   257
 75
     1
175
     1
 42
1.0
 92
        8
 66
     7
 43
1.0
 76
     1
 77
     6
 78
     2
 67
     7
 79
     5
170
     0
171
     0
290
     0
174
     0
 93
        1
 44
0.0
173
     0
291
     1
 45
0.0
1001
ACAD
1000
AcDbSavedByObjectVersion
1070
     0
  0
VISUALSTYLE
  5
2B
102
{ACAD_REACTORS
330
2A
102
}
102
{ACAD_XDICTIONARY
360
1EF
102
}
330
2A
100
AcDbVisualStyle
  2
Flat
 70
     0
 71
     2
 72
     1
 73
     1
 90
        2
 40
0.6
 41
30.0
 62
     5
 63
     7
 74
     0
 91
        0
 64
     7
 65
   257
 75
     1
175
     1
 42
1.0
 92
        8
 66
     7
 43
1.0
 76
     1
 77
     6
 78
     2
 67
     7
 79
     5
170
     0
171
     0
290
     0
174
     0
 93
       13
 44
0.0
173
     0
291
     1
 45
0.0
1001
ACAD
1000
AcDbSavedByObjectVersion
1070
     0
  0
VISUALSTYLE
  5
2C
102
{ACAD_REACTORS
330
2A
102
}
102
{ACAD_XDICTIONARY
360
1F1
102
}
330
2A
100
AcDbVisualStyle
  2
FlatWithEdges
 70
     1
 71
     2
 72
     1
 73
     1
 90
        2
 40
0.6
 41
30.0
 62
     5
 63
     7
 74
     1
 91
        0
 64
     7
 65
   257
 75
     1
175
     1
 42
1.0
 92
        0
 66
   257
 43
1.0
 76
     1
 77
     6
 78
     2
 67
     7
 79
     5
170
     0
171
     0
290
     0
174
     0
 93
       13
 44
0.0
173
     0
291
     1
 45
0.0
1001
ACAD
1000
AcDbSavedByObjectVersion
1070
     0
  0
VISUALSTYLE
  5
2D
102
{ACAD_REACTORS
330
2A
102
}
102
{ACAD_XDICTIONARY
360
1F3
102
}
330
2A
100
AcDbVisualStyle
  2
Gouraud
 70
     2
 71
     2
 72
     2
 73
     1
 90
        2
 40
0.6
 41
30.0
 62
     5
 63
     7
 74
     0
 91
        0
 64
     7
 65
   257
 75
     1
175
     1
 42
1.0
 92
        0
 66
     7
 43
1.0
 76
     1
 77
     6
 78
     2
 67
     7
 79
     5
170
     0
171
     0
290
     0
174
     0
 93
       13
 44
0.0
173
     0
291
     1
 45
0.0
1001
ACAD
1000
AcDbSavedByObjectVersion
1070
     0
  0
VISUALSTYLE
  5
2E
102
{ACAD_REACTORS
330
2A
102
}
102
{ACAD_XDICTIONARY
360
1F5
102
}
330
2A
100
AcDbVisualStyle
  2
GouraudWithEdges
 70
     3
 71
     2
 72
     2
 73
     1
 90
        2
 40
0.6
 41
30.0
 62
     5
 63
     7
 74
     1
 91
        0
 64
     7
 65
   257
 75
     1
175
     1
 42
1.0
 92
        0
 66
   257
 43
1.0
 76
     1
 77
     6
 78
     2
 67
     7
 79
     5
170
     0
171
     0
290
     0
174
     0
 93
       13
 44
0.0
173
     0
291
     1
 45
0.0
1001
ACAD
1000
AcDbSavedByObjectVersion
1070
     0
  0
VISUALSTYLE
  5
31
102
{ACAD_REACTORS
330
2A
102
}
102
{ACAD_XDICTIONARY
360
1FB
102
}
330
2A
100
AcDbVisualStyle
  2
Hidden
 70
     6
 71
     1
 72
     2
 73
     2
 90
        0
 40
0.6
 41
30.0
 62
     5
 63
     7
 74
     2
 91
        2
 64
     7
 65
   257
 75
     2
175
     1
 42
40.0
 92
        0
 66
   257
 43
1.0
 76
     1
 77
     6
 78
     2
 67
     7
 79
     3
170
     0
171
     0
290
     0
174
     0
 93
        1
 44
0.0
173
     0
291
     0
 45
0.0
1001
ACAD
1000
AcDbSavedByObjectVersion
1070
     0
  0
VISUALSTYLE
  5
3B
102
{ACAD_REACTORS
330
2A
102
}
102
{ACAD_XDICTIONARY
360
20F
102
}
330
2A
100
AcDbVisualStyle
  2
JitterOff
 70
    20
 71
     2
 72
     2
 73
     0
 90
        0
 40
0.6
 41
30.0
 62
     5
 63
     7
 74
     1
 91
        4
 64
     7
 65
   257
 75
     1
175
     1
 42
1.0
 92
       10
 66
     7
 43
1.0
 76
     1
 77
     6
 78
     2
 67
     7
 79
     5
170
     0
171
     0
290
     0
174
     0
 93
        1
 44
0.0
173
     0
291
     1
 45
0.0
1001
ACAD
1000
AcDbSavedByObjectVersion
1070
     0
  0
VISUALSTYLE
  5
38
102
{ACAD_REACTORS
330
2A
102
}
102
{ACAD_XDICTIONARY
360
209
102
}
330
2A
100
AcDbVisualStyle
  2
Linepattern
 70
    14
 71
     2
 72
     2
 73
     0
 90
        0
 40
0.6
 41
30.0
 62
     5
 63
     7
 74
     1
 91
        4
 64
     7
 65
   257
 75
     7
175
     7
 42
1.0
 92
        8
 66
     7
 43
1.0
 76
     1
 77
     6
 78
     2
 67
     7
 79
     5
170
     0
171
     0
290
     0
174
     0
 93
        1
 44
0.0
173
     0
291
     1
 45
0.0
1001
ACAD
1000
AcDbSavedByObjectVersion
1070
     0
  0
VISUALSTYLE
  5
3C
102
{ACAD_REACTORS
330
2A
102
}
102
{ACAD_XDICTIONARY
360
211
102
}
330
2A
100
AcDbVisualStyle
  2
OverhangOff
 70
    21
 71
     2
 72
     2
 73
     0
 90
        0
 40
0.6
 41
30.0
 62
     5
 63
     7
 74
     1
 91
        4
 64
     7
 65
   257
 75
     1
175
     1
 42
1.0
 92
        9
 66
     7
 43
1.0
 76
     1
 77
     6
 78
     2
 67
     7
 79
     5
170
     0
171
     0
290
     0
174
     0
 93
        1
 44
0.0
173
     0
291
     1
 45
0.0
1001
ACAD
1000
AcDbSavedByObjectVersion
1070
     0
  0
VISUALSTYLE
  5
33
102
{ACAD_REACTORS
330
2A
102
}
102
{ACAD_XDICTIONARY
360
1FF
102
}
330
2A
100
AcDbVisualStyle
  2
Realistic
 70
     8
 71
     2
 72
     3
 73
     0
 90
        2
 40
0.6
 41
30.0
 62
     5
 63
     7
 74
     0
 91
        0
 64
     7
 65
   257
 75
     1
175
     1
 42
1.0
 92
        8
 66
   257
 43
1.0
 76
     1
 77
     6
 78
     2
 67
     7
 79
     3
170
     0
171
     0
290
     0
174
     0
 93
       13
 44
0.0
173
     0
291
     0
 45
0.0
1001
ACAD
1000
AcDbSavedByObjectVersion
1070
     0
  0
VISUALSTYLE
  5
42
102
{ACAD_REACTORS
330
2A
102
}
102
{ACAD_XDICTIONARY
360
21D
102
}
330
2A
100
AcDbVisualStyle
  2
Shaded
 70
    27
 71
     2
 72
     2
 73
     1
 90
        2
 40
0.6
 41
30.0
 62
     5
 63
     7
 74
     0
 91
        4
 64
     7
 65
   257
 75
     1
175
     1
 42
1.0
 92
        8
 66
   257
 43
1.0
 76
     1
 77
     6
 78
     2
 67
     8
 79
     3
170
     0
171
     0
290
     0
174
     0
 93
        5
 44
0.0
173
     0
291
     0
 45
0.0
1001
ACAD
1000
AcDbSavedByObjectVersion
1070
     0
  0
VISUALSTYLE
  5
41
102
{ACAD_REACTORS
330
2A
102
}
102
{ACAD_XDICTIONARY
360
21B
102
}
330
2A
100
AcDbVisualStyle
  2
Shaded with edges
 70
    26
 71
     2
 72
     2
 73
     1
 90
        2
 40
0.6
 41
30.0
 62
     5
 63
     7
 74
     1
 91
       10
 64
     7
 65
   257
 75
     2
175
     1
 42
1.0
 92
        8
 66
   257
 43
1.0
 76
     1
 77
     6
 78
     2
 67
     7
 79
     3
170
     0
171
     0
290
     0
174
     0
 93
        5
 44
0.0
173
     0
291
     0
 45
0.0
1001
ACAD
1000
AcDbSavedByObjectVersion
1070
     0
  0
VISUALSTYLE
  5
3E
102
{ACAD_REACTORS
330
2A
102
}
102
{ACAD_XDICTIONARY
360
215
102
}
330
2A
100
AcDbVisualStyle
  2
Shades of Gray
 70
    23
 71
     2
 72
     2
 73
     3
 90
        0
 40
0.6
 41
30.0
 62
     5
 63
     7
 74
     2
 91
        2
 64
     7
 65
     7
 75
     1
175
     1
 42
40.0
 92
        8
 66
     7
 43
1.0
 76
     1
 77
     6
 78
     2
 67
     7
 79
     3
170
     0
171
     0
290
     0
174
     0
 93
        1
 44
0.0
173
     0
291
     0
 45
0.0
1001
ACAD
1000
AcDbSavedByObjectVersion
1070
     0
  0
VISUALSTYLE
  5
3F
102
{ACAD_REACTORS
330
2A
102
}
102
{ACAD_XDICTIONARY
360
217
102
}
330
2A
100
AcDbVisualStyle
  2
Sketchy
 70
    24
 71
     1
 72
     2
 73
     2
 90
        0
 40
0.6
 41
30.0
 62
     5
 63
     7
 74
     2
 91
        2
 64
     7
 65
     7
 75
     1
175
     1
 42
40.0
 92
       11
 66
     7
 43
1.0
 76
     1
 77
     6
 78
     2
 67
     7
 79
     6
170
     0
171
     0
290
     0
174
     0
 93
        1
 44
0.0
173
     0
291
     0
 45
0.0
1001
ACAD
1000
AcDbSavedByObjectVersion
1070
     0
  0
VISUALSTYLE
  5
37
102
{ACAD_REACTORS
330
2A
102
}
102
{ACAD_XDICTIONARY
360
207
102
}
330
2A
100
AcDbVisualStyle
  2
Thicken
 70
    13
 71
     2
 72
     2
 73
     0
 90
        0
 40
0.6
 41
30.0
 62
     5
 63
     7
 74
     1
 91
        4
 64
     7
 65
   257
 75
     1
175
     1
 42
1.0
 92
       12
 66
     7
 43
1.0
 76
     1
 77
     6
 78
     2
 67
     7
 79
     5
170
     0
171
     0
290
     0
174
     0
 93
        1
 44
0.0
173
     0
291
     1
 45
0.0
1001
ACAD
1000
AcDbSavedByObjectVersion
1070
     0
  0
VISUALSTYLE
  5
30
102
{ACAD_REACTORS
330
2A
102
}
102
{ACAD_XDICTIONARY
360
1F9
102
}
330
2A
100
AcDbVisualStyle
  2
Wireframe
 70
     5
 71
     0
 72
     2
 73
     0
 90
        0
 40
0.6
 41
30.0
 62
     5
 63
     7
 74
     1
 91
        4
 64
     7
 65
   257
 75
     1
175
     1
 42
1.0
 92
        0
 66
   257
 43
1.0
 76
     1
 77
     6
 78
     2
 67
     7
 79
     3
170
     0
171
     0
290
     0
174
     0
 93
        1
 44
0.0
173
     0
291
     0
 45
0.0
1001
ACAD
1000
AcDbSavedByObjectVersion
1070
     0
  0
VISUALSTYLE
  5
40
102
{ACAD_REACTORS
330
2A
102
}
102
{ACAD_XDICTIONARY
360
219
102
}
330
2A
100
AcDbVisualStyle
  2
X-Ray
 70
    25
 71
     2
 72
     2
 73
     1
 90
        1
 40
0.5
 41
30.0
 62
     5
 63
     7
 74
     1
 91
        0
 64
     7
 65
   257
 75
     1
175
     1
 42
1.0
 92
        8
 66
     7
 43
1.0
 76
     1
 77
     6
 78
     2
 67
     7
 79
     3
170
     0
171
     0
290
     0
174
     0
 93
       13
 44
0.0
173
     0
291
     0
 45
0.0
1001
ACAD
1000
AcDbSavedByObjectVersion
1070
     0
  0
DICTIONARYVAR
  5
1ED
102
{ACAD_REACTORS
330
1E6
102
}
330
1E6
100
DictionaryVariables
280
     0
  1
1:1
  0
DICTIONARYVAR
  5
1EB
102
{ACAD_REACTORS
330
1E6
102
}
330
1E6
100
DictionaryVariables
280
     0
  1
2
  0
DICTIONARYVAR
  5
1EC
102
{ACAD_REACTORS
330
1E6
102
}
330
1E6
100
DictionaryVariables
280
     0
  1
1
  0
DICTIONARYVAR
  5
1EE
102
{ACAD_REACTORS
330
1E6
102
}
330
1E6
100
DictionaryVariables
280
     0
  1
1
  0
DICTIONARY
  5
221
330
45
100
AcDbDictionary
280
     1
281
     1
  3
ACAD_XREC_ROUNDTRIP
360
222
  0
DICTIONARY
  5
21F
330
44
100
AcDbDictionary
280
     1
281
     1
  3
ACAD_XREC_ROUNDTRIP
360
220
  0
DICTIONARY
  5
223
330
46
100
AcDbDictionary
280
     1
281
     1
  3
ACAD_XREC_ROUNDTRIP
360
224
  0
DICTIONARY
  5
1F7
330
2F
100
AcDbDictionary
280
     1
281
     1
  3
ACAD_XREC_ROUNDTRIP
360
1F8
  0
DICTIONARY
  5
1FD
330
32
100
AcDbDictionary
280
     1
281
     1
  3
ACAD_XREC_ROUNDTRIP
360
1FE
  0
DICTIONARY
  5
205
330
36
100
AcDbDictionary
280
     1
281
     1
  3
ACAD_XREC_ROUNDTRIP
360
206
  0
DICTIONARY
  5
20D
330
3A
100
AcDbDictionary
280
     1
281
     1
  3
ACAD_XREC_ROUNDTRIP
360
20E
  0
DICTIONARY
  5
201
330
34
100
AcDbDictionary
280
     1
281
     1
  3
ACAD_XREC_ROUNDTRIP
360
202
  0
DICTIONARY
  5
203
330
35
100
AcDbDictionary
280
     1
281
     1
  3
ACAD_XREC_ROUNDTRIP
360
204
  0
DICTIONARY
  5
213
330
3D
100
AcDbDictionary
280
     1
281
     1
  3
ACAD_XREC_ROUNDTRIP
360
214
  0
DICTIONARY
  5
20B
330
39
100
AcDbDictionary
280
     1
281
     1
  3
ACAD_XREC_ROUNDTRIP
360
20C
  0
DICTIONARY
  5
1EF
330
2B
100
AcDbDictionary
280
     1
281
     1
  3
ACAD_XREC_ROUNDTRIP
360
1F0
  0
DICTIONARY
  5
1F1
330
2C
100
AcDbDictionary
280
     1
281
     1
  3
ACAD_XREC_ROUNDTRIP
360
1F2
  0
DICTIONARY
  5
1F3
330
2D
100
AcDbDictionary
280
     1
281
     1
  3
ACAD_XREC_ROUNDTRIP
360
1F4
  0
DICTIONARY
  5
1F5
330
2E
100
AcDbDictionary
280
     1
281
     1
  3
ACAD_XREC_ROUNDTRIP
360
1F6
  0
DICTIONARY
  5
1FB
330
31
100
AcDbDictionary
280
     1
281
     1
  3
ACAD_XREC_ROUNDTRIP
360
1FC
  0
DICTIONARY
  5
20F
330
3B
100
AcDbDictionary
280
     1
281
     1
  3
ACAD_XREC_ROUNDTRIP
360
210
  0
DICTIONARY
  5
209
330
38
100
AcDbDictionary
280
     1
281
     1
  3
ACAD_XREC_ROUNDTRIP
360
20A
  0
DICTIONARY
  5
211
330
3C
100
AcDbDictionary
280
     1
281
     1
  3
ACAD_XREC_ROUNDTRIP
360
212
  0
DICTIONARY
  5
1FF
330
33
100
AcDbDictionary
280
     1
281
     1
  3
ACAD_XREC_ROUNDTRIP
360
200
  0
DICTIONARY
  5
21D
330
42
100
AcDbDictionary
280
     1
281
     1
  3
ACAD_XREC_ROUNDTRIP
360
21E
  0
DICTIONARY
  5
21B
330
41
100
AcDbDictionary
280
     1
281
     1
  3
ACAD_XREC_ROUNDTRIP
360
21C
  0
DICTIONARY
  5
215
330
3E
100
AcDbDictionary
280
     1
281
     1
  3
ACAD_XREC_ROUNDTRIP
360
216
  0
DICTIONARY
  5
217
330
3F
100
AcDbDictionary
280
     1
281
     1
  3
ACAD_XREC_ROUNDTRIP
360
218
  0
DICTIONARY
  5
207
330
37
100
AcDbDictionary
280
     1
281
     1
  3
ACAD_XREC_ROUNDTRIP
360
208
  0
DICTIONARY
  5
1F9
330
30
100
AcDbDictionary
280
     1
281
     1
  3
ACAD_XREC_ROUNDTRIP
360
1FA
  0
DICTIONARY
  5
219
330
40
100
AcDbDictionary
280
     1
281
     1
  3
ACAD_XREC_ROUNDTRIP
360
21A
  0
XRECORD
  5
222
102
{ACAD_REACTORS
330
221
102
}
330
221
100
AcDbXrecord
280
     1
102
MATERIAL
148
0.0
149
0.0
149
0.0
 93
        0
 94
      127
282
     0
 72
     1
 77
     1
171
     1
175
     1
179
     1
273
     0
  0
XRECORD
  5
220
102
{ACAD_REACTORS
330
21F
102
}
330
21F
100
AcDbXrecord
280
     1
102
MATERIAL
148
0.0
149
0.0
149
0.0
 93
        0
 94
      127
282
     0
 72
     1
 77
     1
171
     1
175
     1
179
     1
273
     0
  0
XRECORD
  5
224
102
{ACAD_REACTORS
330
223
102
}
330
223
100
AcDbXrecord
280
     1
102
MATERIAL
148
0.0
149
0.0
149
0.0
 93
        0
 94
      127
282
     0
 72
     1
 77
     1
171
     1
175
     1
179
     1
273
     0
  0
XRECORD
  5
1F8
102
{ACAD_REACTORS
330
1F7
102
}
330
1F7
100
AcDbXrecord
280
     1
102
RTVSPropertyOp0
 70
     1
102
RTVSPropertyOp1
 70
     1
102
RTVSPropertyOp2
 70
     1
102
RTVSPropertyOp3
 70
     1
102
RTVSPropertyOp4
 70
     1
102
RTVSPropertyOp5
 70
     1
102
RTVSPropertyOp6
 70
     1
102
RTVSPropertyOp7
 70
     1
102
RTVSPropertyOp8
 70
     1
102
RTVSPropertyOp9
 70
     1
102
RTVSPropertyOp10
 70
     1
102
RTVSPropertyOp11
 70
     1
102
RTVSPropertyOp12
 70
     1
102
RTVSPropertyOp13
 70
     1
102
RTVSPropertyOp14
 70
     1
102
RTVSPropertyOp15
 70
     1
102
RTVSPropertyOp16
 70
     1
102
RTVSPropertyOp17
 70
     1
102
RTVSPropertyOp18
 70
     1
102
RTVSPropertyOp19
 70
     1
102
RTVSPropertyOp20
 70
     1
102
RTVSPropertyOp21
 70
     1
102
RTVSPropertyOp22
 70
     1
102
RTVSPropertyOp23
 70
     1
102
RTVSPropertyOp24
 70
     1
102
RTVSPropertyOp25
 70
     1
102
RTVSPropertyOp26
 70
     1
102
RTVSPropertyOp27
 70
     1
102
RTVSPropertyOp28
 70
     1
102
RTVSPropertyOp29
 70
     1
102
RTVSPropertyOp30
 70
     1
102
RTVSPropertyOp31
 70
     1
102
RTVSPropertyOp32
 70
     1
102
RTVSPropertyOp33
 70
     1
102
RTVSPropertyOp34
 70
     1
102
RTVSPropertyOp35
 70
     1
102
RTVSPropertyOp36
 70
     1
102
RTVSPropertyOp37
 70
     1
102
RTVSPropertyOp38
 70
     1
102
RTVSPropertyOp39
 70
     1
102
RTVSPropertyOp40
 70
     1
102
RTVSPropertyOp41
 70
     1
102
RTVSPropertyOp42
 70
     1
102
RTVSPropertyOp43
 70
     1
102
RTVSPropertyOp44
 70
     1
102
RTVSPropertyOp45
 70
     1
102
RTVSPropertyOp46
 70
     1
102
RTVSPropertyOp47
 70
     1
102
RTVSPropertyOp48
 70
     1
102
RTVSPropertyOp49
 70
     1
102
RTVSPropertyOp50
 70
     1
102
RTVSPropertyOp51
 70
     0
102
RTVSPropertyOp52
 70
     0
102
RTVSPropertyOp53
 70
     1
102
RTVSPropertyOp54
 70
     1
102
RTVSPropertyOp55
 70
     1
102
RTVSPropertyOp56
 70
     1
102
RTVSPropertyOp57
 70
     1
102
RTVSPost2010Prop28
280
     1
102
RTVSPost2010PropOp28
 70
     1
102
RTVSPost2010Prop29
280
     1
102
RTVSPost2010PropOp29
 70
     1
102
RTVSPost2010Prop30
280
     0
102
RTVSPost2010PropOp30
 70
     1
102
RTVSPost2010Prop31
280
     0
102
RTVSPost2010PropOp31
 70
     1
102
RTVSPost2010Prop32
280
     0
102
RTVSPost2010PropOp32
 70
     1
102
RTVSPost2010Prop33
280
     0
102
RTVSPost2010PropOp33
 70
     1
102
RTVSPost2010Prop34
280
     0
102
RTVSPost2010PropOp34
 70
     1
102
RTVSPost2010Prop35
280
     0
102
RTVSPost2010PropOp35
 70
     1
102
RTVSPost2010Prop36
280
     0
102
RTVSPost2010PropOp36
 70
     1
102
RTVSPost2010Prop37
 90
       50
102
RTVSPost2010PropOp37
 70
     1
102
RTVSPost2010Prop38
140
0.0
102
RTVSPost2010PropOp38
 70
     1
102
RTVSPost2010Prop39
140
1.0
102
RTVSPost2010PropOp39
 70
     1
102
RTVSPost2010Prop40
 90
        0
102
RTVSPost2010PropOp40
 70
     1
102
RTVSPost2010Prop41ColorIndex
 90
       18
102
RTVSPost2010Prop41ColorRGB
 90
        0
102
RTVSPost2010PropOp41
 70
     1
102
RTVSPost2010Prop42
 90
       50
102
RTVSPost2010PropOp42
 70
     1
102
RTVSPost2010Prop43
 90
        3
102
RTVSPost2010PropOp43
 70
     1
102
RTVSPost2010Prop44ColorIndex
 90
        5
102
RTVSPost2010Prop44ColorRGB
 90
      255
102
RTVSPost2010PropOp44
 70
     1
102
RTVSPost2010Prop45
280
     0
102
RTVSPost2010PropOp45
 70
     1
102
RTVSPost2010Prop46
 90
       50
102
RTVSPost2010PropOp46
 70
     1
102
RTVSPost2010Prop47
 90
       50
102
RTVSPost2010PropOp47
 70
     1
102
RTVSPost2010Prop48
 90
       50
102
RTVSPost2010PropOp48
 70
     1
102
RTVSPost2010Prop49
280
     0
102
RTVSPost2010PropOp49
 70
     1
102
RTVSPost2010Prop50
 90
       50
102
RTVSPost2010PropOp50
 70
     1
102
RTVSPost2010Prop51ColorIndex
 90
      256
102
RTVSPost2010Prop51ColorRGB
 90
-16777216
102
RTVSPost2010PropOp51
 70
     0
102
RTVSPost2010Prop52
140
1.0
102
RTVSPost2010PropOp52
 70
     0
102
RTVSPost2010Prop53
 90
        2
102
RTVSPost2010PropOp53
 70
     1
102
RTVSPost2010Prop54
  1
strokes_ogs.tif
102
RTVSPost2010PropOp54
 70
     1
102
RTVSPost2010Prop55
280
     0
102
RTVSPost2010PropOp55
 70
     1
102
RTVSPost2010Prop56
140
1.0
102
RTVSPost2010PropOp56
 70
     1
102
RTVSPost2010Prop57
140
1.0
102
RTVSPost2010PropOp57
 70
     1
  0
XRECORD
  5
1FE
102
{ACAD_REACTORS
330
1FD
102
}
330
1FD
100
AcDbXrecord
280
     1
102
RTVSPropertyOp0
 70
     1
102
RTVSPropertyOp1
 70
     1
102
RTVSPropertyOp2
 70
     1
102
RTVSPropertyOp3
 70
     1
102
RTVSPropertyOp4
 70
     1
102
RTVSPropertyOp5
 70
     1
102
RTVSPropertyOp6
 70
     1
102
RTVSPropertyOp7
 70
     1
102
RTVSPropertyOp8
 70
     1
102
RTVSPropertyOp9
 70
     1
102
RTVSPropertyOp10
 70
     1
102
RTVSPropertyOp11
 70
     1
102
RTVSPropertyOp12
 70
     1
102
RTVSPropertyOp13
 70
     1
102
RTVSPropertyOp14
 70
     1
102
RTVSPropertyOp15
 70
     1
102
RTVSPropertyOp16
 70
     1
102
RTVSPropertyOp17
 70
     1
102
RTVSPropertyOp18
 70
     1
102
RTVSPropertyOp19
 70
     1
102
RTVSPropertyOp20
 70
     1
102
RTVSPropertyOp21
 70
     1
102
RTVSPropertyOp22
 70
     1
102
RTVSPropertyOp23
 70
     1
102
RTVSPropertyOp24
 70
     1
102
RTVSPropertyOp25
 70
     1
102
RTVSPropertyOp26
 70
     1
102
RTVSPropertyOp27
 70
     1
102
RTVSPropertyOp28
 70
     1
102
RTVSPropertyOp29
 70
     1
102
RTVSPropertyOp30
 70
     1
102
RTVSPropertyOp31
 70
     1
102
RTVSPropertyOp32
 70
     1
102
RTVSPropertyOp33
 70
     1
102
RTVSPropertyOp34
 70
     1
102
RTVSPropertyOp35
 70
     1
102
RTVSPropertyOp36
 70
     1
102
RTVSPropertyOp37
 70
     1
102
RTVSPropertyOp38
 70
     1
102
RTVSPropertyOp39
 70
     1
102
RTVSPropertyOp40
 70
     1
102
RTVSPropertyOp41
 70
     1
102
RTVSPropertyOp42
 70
     1
102
RTVSPropertyOp43
 70
     1
102
RTVSPropertyOp44
 70
     1
102
RTVSPropertyOp45
 70
     1
102
RTVSPropertyOp46
 70
     1
102
RTVSPropertyOp47
 70
     1
102
RTVSPropertyOp48
 70
     1
102
RTVSPropertyOp49
 70
     1
102
RTVSPropertyOp50
 70
     1
102
RTVSPropertyOp51
 70
     0
102
RTVSPropertyOp52
 70
     0
102
RTVSPropertyOp53
 70
     1
102
RTVSPropertyOp54
 70
     1
102
RTVSPropertyOp55
 70
     1
102
RTVSPropertyOp56
 70
     1
102
RTVSPropertyOp57
 70
     1
102
RTVSPost2010Prop28
280
     0
102
RTVSPost2010PropOp28
 70
     1
102
RTVSPost2010Prop29
280
     1
102
RTVSPost2010PropOp29
 70
     1
102
RTVSPost2010Prop30
280
     1
102
RTVSPost2010PropOp30
 70
     1
102
RTVSPost2010Prop31
280
     0
102
RTVSPost2010PropOp31
 70
     1
102
RTVSPost2010Prop32
280
     0
102
RTVSPost2010PropOp32
 70
     1
102
RTVSPost2010Prop33
280
     0
102
RTVSPost2010PropOp33
 70
     1
102
RTVSPost2010Prop34
280
     0
102
RTVSPost2010PropOp34
 70
     1
102
RTVSPost2010Prop35
280
     0
102
RTVSPost2010PropOp35
 70
     1
102
RTVSPost2010Prop36
280
     0
102
RTVSPost2010PropOp36
 70
     1
102
RTVSPost2010Prop37
 90
       50
102
RTVSPost2010PropOp37
 70
     1
102
RTVSPost2010Prop38
140
0.0
102
RTVSPost2010PropOp38
 70
     1
102
RTVSPost2010Prop39
140
1.0
102
RTVSPost2010PropOp39
 70
     1
102
RTVSPost2010Prop40
 90
        0
102
RTVSPost2010PropOp40
 70
     1
102
RTVSPost2010Prop41ColorIndex
 90
       18
102
RTVSPost2010Prop41ColorRGB
 90
        0
102
RTVSPost2010PropOp41
 70
     1
102
RTVSPost2010Prop42
 90
       50
102
RTVSPost2010PropOp42
 70
     1
102
RTVSPost2010Prop43
 90
        3
102
RTVSPost2010PropOp43
 70
     1
102
RTVSPost2010Prop44ColorIndex
 90
        5
102
RTVSPost2010Prop44ColorRGB
 90
      255
102
RTVSPost2010PropOp44
 70
     1
102
RTVSPost2010Prop45
280
     0
102
RTVSPost2010PropOp45
 70
     1
102
RTVSPost2010Prop46
 90
       50
102
RTVSPost2010PropOp46
 70
     1
102
RTVSPost2010Prop47
 90
       50
102
RTVSPost2010PropOp47
 70
     1
102
RTVSPost2010Prop48
 90
       50
102
RTVSPost2010PropOp48
 70
     1
102
RTVSPost2010Prop49
280
     0
102
RTVSPost2010PropOp49
 70
     1
102
RTVSPost2010Prop50
 90
       50
102
RTVSPost2010PropOp50
 70
     1
102
RTVSPost2010Prop51ColorIndex
 90
      256
102
RTVSPost2010Prop51ColorRGB
 90
-16777216
102
RTVSPost2010PropOp51
 70
     0
102
RTVSPost2010Prop52
140
1.0
102
RTVSPost2010PropOp52
 70
     0
102
RTVSPost2010Prop53
 90
        2
102
RTVSPost2010PropOp53
 70
     1
102
RTVSPost2010Prop54
  1
strokes_ogs.tif
102
RTVSPost2010PropOp54
 70
     1
102
RTVSPost2010Prop55
280
     0
102
RTVSPost2010PropOp55
 70
     1
102
RTVSPost2010Prop56
140
1.0
102
RTVSPost2010PropOp56
 70
     1
102
RTVSPost2010Prop57
140
1.0
102
RTVSPost2010PropOp57
 70
     1
  0
XRECORD
  5
206
102
{ACAD_REACTORS
330
205
102
}
330
205
100
AcDbXrecord
280
     1
102
RTVSPropertyOp0
 70
     1
102
RTVSPropertyOp1
 70
     1
102
RTVSPropertyOp2
 70
     1
102
RTVSPropertyOp3
 70
     1
102
RTVSPropertyOp4
 70
     1
102
RTVSPropertyOp5
 70
     1
102
RTVSPropertyOp6
 70
     1
102
RTVSPropertyOp7
 70
     1
102
RTVSPropertyOp8
 70
     1
102
RTVSPropertyOp9
 70
     1
102
RTVSPropertyOp10
 70
     1
102
RTVSPropertyOp11
 70
     1
102
RTVSPropertyOp12
 70
     1
102
RTVSPropertyOp13
 70
     1
102
RTVSPropertyOp14
 70
     1
102
RTVSPropertyOp15
 70
     1
102
RTVSPropertyOp16
 70
     1
102
RTVSPropertyOp17
 70
     1
102
RTVSPropertyOp18
 70
     1
102
RTVSPropertyOp19
 70
     1
102
RTVSPropertyOp20
 70
     1
102
RTVSPropertyOp21
 70
     1
102
RTVSPropertyOp22
 70
     1
102
RTVSPropertyOp23
 70
     1
102
RTVSPropertyOp24
 70
     1
102
RTVSPropertyOp25
 70
     1
102
RTVSPropertyOp26
 70
     1
102
RTVSPropertyOp27
 70
     1
102
RTVSPropertyOp28
 70
     1
102
RTVSPropertyOp29
 70
     1
102
RTVSPropertyOp30
 70
     1
102
RTVSPropertyOp31
 70
     1
102
RTVSPropertyOp32
 70
     1
102
RTVSPropertyOp33
 70
     1
102
RTVSPropertyOp34
 70
     1
102
RTVSPropertyOp35
 70
     1
102
RTVSPropertyOp36
 70
     1
102
RTVSPropertyOp37
 70
     1
102
RTVSPropertyOp38
 70
     1
102
RTVSPropertyOp39
 70
     1
102
RTVSPropertyOp40
 70
     1
102
RTVSPropertyOp41
 70
     1
102
RTVSPropertyOp42
 70
     1
102
RTVSPropertyOp43
 70
     1
102
RTVSPropertyOp44
 70
     1
102
RTVSPropertyOp45
 70
     1
102
RTVSPropertyOp46
 70
     1
102
RTVSPropertyOp47
 70
     1
102
RTVSPropertyOp48
 70
     1
102
RTVSPropertyOp49
 70
     1
102
RTVSPropertyOp50
 70
     1
102
RTVSPropertyOp51
 70
     0
102
RTVSPropertyOp52
 70
     0
102
RTVSPropertyOp53
 70
     1
102
RTVSPropertyOp54
 70
     1
102
RTVSPropertyOp55
 70
     1
102
RTVSPropertyOp56
 70
     1
102
RTVSPropertyOp57
 70
     1
102
RTVSPost2010Prop28
280
     0
102
RTVSPost2010PropOp28
 70
     1
102
RTVSPost2010Prop29
280
     1
102
RTVSPost2010PropOp29
 70
     1
102
RTVSPost2010Prop30
280
     1
102
RTVSPost2010PropOp30
 70
     1
102
RTVSPost2010Prop31
280
     0
102
RTVSPost2010PropOp31
 70
     1
102
RTVSPost2010Prop32
280
     0
102
RTVSPost2010PropOp32
 70
     1
102
RTVSPost2010Prop33
280
     0
102
RTVSPost2010PropOp33
 70
     1
102
RTVSPost2010Prop34
280
     0
102
RTVSPost2010PropOp34
 70
     1
102
RTVSPost2010Prop35
280
     0
102
RTVSPost2010PropOp35
 70
     1
102
RTVSPost2010Prop36
280
     0
102
RTVSPost2010PropOp36
 70
     1
102
RTVSPost2010Prop37
 90
       50
102
RTVSPost2010PropOp37
 70
     1
102
RTVSPost2010Prop38
140
0.0
102
RTVSPost2010PropOp38
 70
     1
102
RTVSPost2010Prop39
140
1.0
102
RTVSPost2010PropOp39
 70
     1
102
RTVSPost2010Prop40
 90
        0
102
RTVSPost2010PropOp40
 70
     1
102
RTVSPost2010Prop41ColorIndex
 90
       18
102
RTVSPost2010Prop41ColorRGB
 90
        0
102
RTVSPost2010PropOp41
 70
     1
102
RTVSPost2010Prop42
 90
       50
102
RTVSPost2010PropOp42
 70
     1
102
RTVSPost2010Prop43
 90
        3
102
RTVSPost2010PropOp43
 70
     1
102
RTVSPost2010Prop44ColorIndex
 90
        5
102
RTVSPost2010Prop44ColorRGB
 90
      255
102
RTVSPost2010PropOp44
 70
     1
102
RTVSPost2010Prop45
280
     0
102
RTVSPost2010PropOp45
 70
     1
102
RTVSPost2010Prop46
 90
       50
102
RTVSPost2010PropOp46
 70
     1
102
RTVSPost2010Prop47
 90
       50
102
RTVSPost2010PropOp47
 70
     1
102
RTVSPost2010Prop48
 90
       50
102
RTVSPost2010PropOp48
 70
     1
102
RTVSPost2010Prop49
280
     0
102
RTVSPost2010PropOp49
 70
     1
102
RTVSPost2010Prop50
 90
       50
102
RTVSPost2010PropOp50
 70
     1
102
RTVSPost2010Prop51ColorIndex
 90
      256
102
RTVSPost2010Prop51ColorRGB
 90
-16777216
102
RTVSPost2010PropOp51
 70
     0
102
RTVSPost2010Prop52
140
1.0
102
RTVSPost2010PropOp52
 70
     0
102
RTVSPost2010Prop53
 90
        2
102
RTVSPost2010PropOp53
 70
     1
102
RTVSPost2010Prop54
  1
strokes_ogs.tif
102
RTVSPost2010PropOp54
 70
     1
102
RTVSPost2010Prop55
280
     0
102
RTVSPost2010PropOp55
 70
     1
102
RTVSPost2010Prop56
140
1.0
102
RTVSPost2010PropOp56
 70
     1
102
RTVSPost2010Prop57
140
1.0
102
RTVSPost2010PropOp57
 70
     1
  0
XRECORD
  5
20E
102
{ACAD_REACTORS
330
20D
102
}
330
20D
100
AcDbXrecord
280
     1
102
RTVSPropertyOp0
 70
     1
102
RTVSPropertyOp1
 70
     1
102
RTVSPropertyOp2
 70
     1
102
RTVSPropertyOp3
 70
     1
102
RTVSPropertyOp4
 70
     1
102
RTVSPropertyOp5
 70
     1
102
RTVSPropertyOp6
 70
     1
102
RTVSPropertyOp7
 70
     1
102
RTVSPropertyOp8
 70
     1
102
RTVSPropertyOp9
 70
     1
102
RTVSPropertyOp10
 70
     1
102
RTVSPropertyOp11
 70
     1
102
RTVSPropertyOp12
 70
     1
102
RTVSPropertyOp13
 70
     1
102
RTVSPropertyOp14
 70
     1
102
RTVSPropertyOp15
 70
     1
102
RTVSPropertyOp16
 70
     1
102
RTVSPropertyOp17
 70
     1
102
RTVSPropertyOp18
 70
     1
102
RTVSPropertyOp19
 70
     1
102
RTVSPropertyOp20
 70
     1
102
RTVSPropertyOp21
 70
     1
102
RTVSPropertyOp22
 70
     1
102
RTVSPropertyOp23
 70
     1
102
RTVSPropertyOp24
 70
     1
102
RTVSPropertyOp25
 70
     1
102
RTVSPropertyOp26
 70
     1
102
RTVSPropertyOp27
 70
     1
102
RTVSPropertyOp28
 70
     1
102
RTVSPropertyOp29
 70
     1
102
RTVSPropertyOp30
 70
     1
102
RTVSPropertyOp31
 70
     1
102
RTVSPropertyOp32
 70
     1
102
RTVSPropertyOp33
 70
     1
102
RTVSPropertyOp34
 70
     1
102
RTVSPropertyOp35
 70
     1
102
RTVSPropertyOp36
 70
     1
102
RTVSPropertyOp37
 70
     1
102
RTVSPropertyOp38
 70
     1
102
RTVSPropertyOp39
 70
     1
102
RTVSPropertyOp40
 70
     1
102
RTVSPropertyOp41
 70
     1
102
RTVSPropertyOp42
 70
     1
102
RTVSPropertyOp43
 70
     1
102
RTVSPropertyOp44
 70
     1
102
RTVSPropertyOp45
 70
     1
102
RTVSPropertyOp46
 70
     1
102
RTVSPropertyOp47
 70
     1
102
RTVSPropertyOp48
 70
     1
102
RTVSPropertyOp49
 70
     1
102
RTVSPropertyOp50
 70
     1
102
RTVSPropertyOp51
 70
     0
102
RTVSPropertyOp52
 70
     0
102
RTVSPropertyOp53
 70
     1
102
RTVSPropertyOp54
 70
     1
102
RTVSPropertyOp55
 70
     1
102
RTVSPropertyOp56
 70
     1
102
RTVSPropertyOp57
 70
     1
102
RTVSPost2010Prop28
280
     0
102
RTVSPost2010PropOp28
 70
     1
102
RTVSPost2010Prop29
280
     1
102
RTVSPost2010PropOp29
 70
     1
102
RTVSPost2010Prop30
280
     1
102
RTVSPost2010PropOp30
 70
     1
102
RTVSPost2010Prop31
280
     0
102
RTVSPost2010PropOp31
 70
     1
102
RTVSPost2010Prop32
280
     0
102
RTVSPost2010PropOp32
 70
     1
102
RTVSPost2010Prop33
280
     0
102
RTVSPost2010PropOp33
 70
     1
102
RTVSPost2010Prop34
280
     0
102
RTVSPost2010PropOp34
 70
     1
102
RTVSPost2010Prop35
280
     0
102
RTVSPost2010PropOp35
 70
     1
102
RTVSPost2010Prop36
280
     0
102
RTVSPost2010PropOp36
 70
     1
102
RTVSPost2010Prop37
 90
       50
102
RTVSPost2010PropOp37
 70
     1
102
RTVSPost2010Prop38
140
0.0
102
RTVSPost2010PropOp38
 70
     1
102
RTVSPost2010Prop39
140
1.0
102
RTVSPost2010PropOp39
 70
     1
102
RTVSPost2010Prop40
 90
        0
102
RTVSPost2010PropOp40
 70
     1
102
RTVSPost2010Prop41ColorIndex
 90
       18
102
RTVSPost2010Prop41ColorRGB
 90
        0
102
RTVSPost2010PropOp41
 70
     1
102
RTVSPost2010Prop42
 90
       50
102
RTVSPost2010PropOp42
 70
     1
102
RTVSPost2010Prop43
 90
        3
102
RTVSPost2010PropOp43
 70
     1
102
RTVSPost2010Prop44ColorIndex
 90
        5
102
RTVSPost2010Prop44ColorRGB
 90
      255
102
RTVSPost2010PropOp44
 70
     1
102
RTVSPost2010Prop45
280
     0
102
RTVSPost2010PropOp45
 70
     1
102
RTVSPost2010Prop46
 90
       50
102
RTVSPost2010PropOp46
 70
     1
102
RTVSPost2010Prop47
 90
       50
102
RTVSPost2010PropOp47
 70
     1
102
RTVSPost2010Prop48
 90
       50
102
RTVSPost2010PropOp48
 70
     1
102
RTVSPost2010Prop49
280
     0
102
RTVSPost2010PropOp49
 70
     1
102
RTVSPost2010Prop50
 90
       50
102
RTVSPost2010PropOp50
 70
     1
102
RTVSPost2010Prop51ColorIndex
 90
      256
102
RTVSPost2010Prop51ColorRGB
 90
-16777216
102
RTVSPost2010PropOp51
 70
     0
102
RTVSPost2010Prop52
140
1.0
102
RTVSPost2010PropOp52
 70
     0
102
RTVSPost2010Prop53
 90
        2
102
RTVSPost2010PropOp53
 70
     1
102
RTVSPost2010Prop54
  1
strokes_ogs.tif
102
RTVSPost2010PropOp54
 70
     1
102
RTVSPost2010Prop55
280
     0
102
RTVSPost2010PropOp55
 70
     1
102
RTVSPost2010Prop56
140
1.0
102
RTVSPost2010PropOp56
 70
     1
102
RTVSPost2010Prop57
140
1.0
102
RTVSPost2010PropOp57
 70
     1
  0
XRECORD
  5
202
102
{ACAD_REACTORS
330
201
102
}
330
201
100
AcDbXrecord
280
     1
102
RTVSPropertyOp0
 70
     1
102
RTVSPropertyOp1
 70
     1
102
RTVSPropertyOp2
 70
     1
102
RTVSPropertyOp3
 70
     1
102
RTVSPropertyOp4
 70
     1
102
RTVSPropertyOp5
 70
     1
102
RTVSPropertyOp6
 70
     1
102
RTVSPropertyOp7
 70
     1
102
RTVSPropertyOp8
 70
     1
102
RTVSPropertyOp9
 70
     1
102
RTVSPropertyOp10
 70
     1
102
RTVSPropertyOp11
 70
     1
102
RTVSPropertyOp12
 70
     1
102
RTVSPropertyOp13
 70
     1
102
RTVSPropertyOp14
 70
     1
102
RTVSPropertyOp15
 70
     1
102
RTVSPropertyOp16
 70
     1
102
RTVSPropertyOp17
 70
     1
102
RTVSPropertyOp18
 70
     1
102
RTVSPropertyOp19
 70
     1
102
RTVSPropertyOp20
 70
     1
102
RTVSPropertyOp21
 70
     1
102
RTVSPropertyOp22
 70
     1
102
RTVSPropertyOp23
 70
     1
102
RTVSPropertyOp24
 70
     1
102
RTVSPropertyOp25
 70
     1
102
RTVSPropertyOp26
 70
     1
102
RTVSPropertyOp27
 70
     1
102
RTVSPropertyOp28
 70
     1
102
RTVSPropertyOp29
 70
     1
102
RTVSPropertyOp30
 70
     1
102
RTVSPropertyOp31
 70
     1
102
RTVSPropertyOp32
 70
     1
102
RTVSPropertyOp33
 70
     1
102
RTVSPropertyOp34
 70
     1
102
RTVSPropertyOp35
 70
     1
102
RTVSPropertyOp36
 70
     1
102
RTVSPropertyOp37
 70
     1
102
RTVSPropertyOp38
 70
     1
102
RTVSPropertyOp39
 70
     1
102
RTVSPropertyOp40
 70
     1
102
RTVSPropertyOp41
 70
     1
102
RTVSPropertyOp42
 70
     1
102
RTVSPropertyOp43
 70
     1
102
RTVSPropertyOp44
 70
     1
102
RTVSPropertyOp45
 70
     1
102
RTVSPropertyOp46
 70
     1
102
RTVSPropertyOp47
 70
     1
102
RTVSPropertyOp48
 70
     1
102
RTVSPropertyOp49
 70
     1
102
RTVSPropertyOp50
 70
     1
102
RTVSPropertyOp51
 70
     0
102
RTVSPropertyOp52
 70
     0
102
RTVSPropertyOp53
 70
     1
102
RTVSPropertyOp54
 70
     1
102
RTVSPropertyOp55
 70
     1
102
RTVSPropertyOp56
 70
     1
102
RTVSPropertyOp57
 70
     1
102
RTVSPost2010Prop28
280
     0
102
RTVSPost2010PropOp28
 70
     1
102
RTVSPost2010Prop29
280
     1
102
RTVSPost2010PropOp29
 70
     1
102
RTVSPost2010Prop30
280
     1
102
RTVSPost2010PropOp30
 70
     1
102
RTVSPost2010Prop31
280
     0
102
RTVSPost2010PropOp31
 70
     1
102
RTVSPost2010Prop32
280
     0
102
RTVSPost2010PropOp32
 70
     1
102
RTVSPost2010Prop33
280
     0
102
RTVSPost2010PropOp33
 70
     1
102
RTVSPost2010Prop34
280
     0
102
RTVSPost2010PropOp34
 70
     1
102
RTVSPost2010Prop35
280
     0
102
RTVSPost2010PropOp35
 70
     1
102
RTVSPost2010Prop36
280
     0
102
RTVSPost2010PropOp36
 70
     1
102
RTVSPost2010Prop37
 90
       50
102
RTVSPost2010PropOp37
 70
     1
102
RTVSPost2010Prop38
140
0.0
102
RTVSPost2010PropOp38
 70
     1
102
RTVSPost2010Prop39
140
1.0
102
RTVSPost2010PropOp39
 70
     1
102
RTVSPost2010Prop40
 90
        0
102
RTVSPost2010PropOp40
 70
     1
102
RTVSPost2010Prop41ColorIndex
 90
       18
102
RTVSPost2010Prop41ColorRGB
 90
        0
102
RTVSPost2010PropOp41
 70
     1
102
RTVSPost2010Prop42
 90
       50
102
RTVSPost2010PropOp42
 70
     1
102
RTVSPost2010Prop43
 90
        3
102
RTVSPost2010PropOp43
 70
     1
102
RTVSPost2010Prop44ColorIndex
 90
        5
102
RTVSPost2010Prop44ColorRGB
 90
      255
102
RTVSPost2010PropOp44
 70
     1
102
RTVSPost2010Prop45
280
     0
102
RTVSPost2010PropOp45
 70
     1
102
RTVSPost2010Prop46
 90
       50
102
RTVSPost2010PropOp46
 70
     1
102
RTVSPost2010Prop47
 90
       50
102
RTVSPost2010PropOp47
 70
     1
102
RTVSPost2010Prop48
 90
       50
102
RTVSPost2010PropOp48
 70
     1
102
RTVSPost2010Prop49
280
     0
102
RTVSPost2010PropOp49
 70
     1
102
RTVSPost2010Prop50
 90
       50
102
RTVSPost2010PropOp50
 70
     1
102
RTVSPost2010Prop51ColorIndex
 90
      256
102
RTVSPost2010Prop51ColorRGB
 90
-16777216
102
RTVSPost2010PropOp51
 70
     0
102
RTVSPost2010Prop52
140
1.0
102
RTVSPost2010PropOp52
 70
     0
102
RTVSPost2010Prop53
 90
        2
102
RTVSPost2010PropOp53
 70
     1
102
RTVSPost2010Prop54
  1
strokes_ogs.tif
102
RTVSPost2010PropOp54
 70
     1
102
RTVSPost2010Prop55
280
     0
102
RTVSPost2010PropOp55
 70
     1
102
RTVSPost2010Prop56
140
1.0
102
RTVSPost2010PropOp56
 70
     1
102
RTVSPost2010Prop57
140
1.0
102
RTVSPost2010PropOp57
 70
     1
  0
XRECORD
  5
204
102
{ACAD_REACTORS
330
203
102
}
330
203
100
AcDbXrecord
280
     1
102
RTVSPropertyOp0
 70
     1
102
RTVSPropertyOp1
 70
     1
102
RTVSPropertyOp2
 70
     1
102
RTVSPropertyOp3
 70
     1
102
RTVSPropertyOp4
 70
     1
102
RTVSPropertyOp5
 70
     1
102
RTVSPropertyOp6
 70
     1
102
RTVSPropertyOp7
 70
     1
102
RTVSPropertyOp8
 70
     1
102
RTVSPropertyOp9
 70
     1
102
RTVSPropertyOp10
 70
     1
102
RTVSPropertyOp11
 70
     1
102
RTVSPropertyOp12
 70
     1
102
RTVSPropertyOp13
 70
     1
102
RTVSPropertyOp14
 70
     1
102
RTVSPropertyOp15
 70
     1
102
RTVSPropertyOp16
 70
     1
102
RTVSPropertyOp17
 70
     1
102
RTVSPropertyOp18
 70
     1
102
RTVSPropertyOp19
 70
     1
102
RTVSPropertyOp20
 70
     1
102
RTVSPropertyOp21
 70
     1
102
RTVSPropertyOp22
 70
     1
102
RTVSPropertyOp23
 70
     1
102
RTVSPropertyOp24
 70
     1
102
RTVSPropertyOp25
 70
     1
102
RTVSPropertyOp26
 70
     1
102
RTVSPropertyOp27
 70
     1
102
RTVSPropertyOp28
 70
     1
102
RTVSPropertyOp29
 70
     1
102
RTVSPropertyOp30
 70
     1
102
RTVSPropertyOp31
 70
     1
102
RTVSPropertyOp32
 70
     1
102
RTVSPropertyOp33
 70
     1
102
RTVSPropertyOp34
 70
     1
102
RTVSPropertyOp35
 70
     1
102
RTVSPropertyOp36
 70
     1
102
RTVSPropertyOp37
 70
     1
102
RTVSPropertyOp38
 70
     1
102
RTVSPropertyOp39
 70
     1
102
RTVSPropertyOp40
 70
     1
102
RTVSPropertyOp41
 70
     1
102
RTVSPropertyOp42
 70
     1
102
RTVSPropertyOp43
 70
     1
102
RTVSPropertyOp44
 70
     1
102
RTVSPropertyOp45
 70
     1
102
RTVSPropertyOp46
 70
     1
102
RTVSPropertyOp47
 70
     1
102
RTVSPropertyOp48
 70
     1
102
RTVSPropertyOp49
 70
     1
102
RTVSPropertyOp50
 70
     1
102
RTVSPropertyOp51
 70
     0
102
RTVSPropertyOp52
 70
     0
102
RTVSPropertyOp53
 70
     1
102
RTVSPropertyOp54
 70
     1
102
RTVSPropertyOp55
 70
     1
102
RTVSPropertyOp56
 70
     1
102
RTVSPropertyOp57
 70
     1
102
RTVSPost2010Prop28
280
     0
102
RTVSPost2010PropOp28
 70
     1
102
RTVSPost2010Prop29
280
     1
102
RTVSPost2010PropOp29
 70
     1
102
RTVSPost2010Prop30
280
     1
102
RTVSPost2010PropOp30
 70
     1
102
RTVSPost2010Prop31
280
     0
102
RTVSPost2010PropOp31
 70
     1
102
RTVSPost2010Prop32
280
     0
102
RTVSPost2010PropOp32
 70
     1
102
RTVSPost2010Prop33
280
     0
102
RTVSPost2010PropOp33
 70
     1
102
RTVSPost2010Prop34
280
     0
102
RTVSPost2010PropOp34
 70
     1
102
RTVSPost2010Prop35
280
     0
102
RTVSPost2010PropOp35
 70
     1
102
RTVSPost2010Prop36
280
     0
102
RTVSPost2010PropOp36
 70
     1
102
RTVSPost2010Prop37
 90
       50
102
RTVSPost2010PropOp37
 70
     1
102
RTVSPost2010Prop38
140
0.0
102
RTVSPost2010PropOp38
 70
     1
102
RTVSPost2010Prop39
140
1.0
102
RTVSPost2010PropOp39
 70
     1
102
RTVSPost2010Prop40
 90
        0
102
RTVSPost2010PropOp40
 70
     1
102
RTVSPost2010Prop41ColorIndex
 90
       18
102
RTVSPost2010Prop41ColorRGB
 90
        0
102
RTVSPost2010PropOp41
 70
     1
102
RTVSPost2010Prop42
 90
       50
102
RTVSPost2010PropOp42
 70
     1
102
RTVSPost2010Prop43
 90
        3
102
RTVSPost2010PropOp43
 70
     1
102
RTVSPost2010Prop44ColorIndex
 90
        5
102
RTVSPost2010Prop44ColorRGB
 90
      255
102
RTVSPost2010PropOp44
 70
     1
102
RTVSPost2010Prop45
280
     0
102
RTVSPost2010PropOp45
 70
     1
102
RTVSPost2010Prop46
 90
       50
102
RTVSPost2010PropOp46
 70
     1
102
RTVSPost2010Prop47
 90
       50
102
RTVSPost2010PropOp47
 70
     1
102
RTVSPost2010Prop48
 90
       50
102
RTVSPost2010PropOp48
 70
     1
102
RTVSPost2010Prop49
280
     0
102
RTVSPost2010PropOp49
 70
     1
102
RTVSPost2010Prop50
 90
       50
102
RTVSPost2010PropOp50
 70
     1
102
RTVSPost2010Prop51ColorIndex
 90
      256
102
RTVSPost2010Prop51ColorRGB
 90
-16777216
102
RTVSPost2010PropOp51
 70
     0
102
RTVSPost2010Prop52
140
1.0
102
RTVSPost2010PropOp52
 70
     0
102
RTVSPost2010Prop53
 90
        2
102
RTVSPost2010PropOp53
 70
     1
102
RTVSPost2010Prop54
  1
strokes_ogs.tif
102
RTVSPost2010PropOp54
 70
     1
102
RTVSPost2010Prop55
280
     0
102
RTVSPost2010PropOp55
 70
     1
102
RTVSPost2010Prop56
140
1.0
102
RTVSPost2010PropOp56
 70
     1
102
RTVSPost2010Prop57
140
1.0
102
RTVSPost2010PropOp57
 70
     1
  0
XRECORD
  5
214
102
{ACAD_REACTORS
330
213
102
}
330
213
100
AcDbXrecord
280
     1
102
RTVSPropertyOp0
 70
     0
102
RTVSPropertyOp1
 70
     0
102
RTVSPropertyOp2
 70
     0
102
RTVSPropertyOp3
 70
     0
102
RTVSPropertyOp4
 70
     0
102
RTVSPropertyOp5
 70
     0
102
RTVSPropertyOp6
 70
     0
102
RTVSPropertyOp7
 70
     0
102
RTVSPropertyOp8
 70
     0
102
RTVSPropertyOp9
 70
     0
102
RTVSPropertyOp10
 70
     0
102
RTVSPropertyOp11
 70
     0
102
RTVSPropertyOp12
 70
     0
102
RTVSPropertyOp13
 70
     0
102
RTVSPropertyOp14
 70
     2
102
RTVSPropertyOp15
 70
     0
102
RTVSPropertyOp16
 70
     0
102
RTVSPropertyOp17
 70
     0
102
RTVSPropertyOp18
 70
     0
102
RTVSPropertyOp19
 70
     0
102
RTVSPropertyOp20
 70
     0
102
RTVSPropertyOp21
 70
     0
102
RTVSPropertyOp22
 70
     0
102
RTVSPropertyOp23
 70
     0
102
RTVSPropertyOp24
 70
     0
102
RTVSPropertyOp25
 70
     0
102
RTVSPropertyOp26
 70
     0
102
RTVSPropertyOp27
 70
     0
102
RTVSPropertyOp28
 70
     0
102
RTVSPropertyOp29
 70
     0
102
RTVSPropertyOp30
 70
     0
102
RTVSPropertyOp31
 70
     0
102
RTVSPropertyOp32
 70
     0
102
RTVSPropertyOp33
 70
     0
102
RTVSPropertyOp34
 70
     0
102
RTVSPropertyOp35
 70
     0
102
RTVSPropertyOp36
 70
     0
102
RTVSPropertyOp37
 70
     0
102
RTVSPropertyOp38
 70
     0
102
RTVSPropertyOp39
 70
     0
102
RTVSPropertyOp40
 70
     0
102
RTVSPropertyOp41
 70
     0
102
RTVSPropertyOp42
 70
     0
102
RTVSPropertyOp43
 70
     0
102
RTVSPropertyOp44
 70
     0
102
RTVSPropertyOp45
 70
     0
102
RTVSPropertyOp46
 70
     0
102
RTVSPropertyOp47
 70
     0
102
RTVSPropertyOp48
 70
     0
102
RTVSPropertyOp49
 70
     0
102
RTVSPropertyOp50
 70
     0
102
RTVSPropertyOp51
 70
     0
102
RTVSPropertyOp52
 70
     0
102
RTVSPropertyOp53
 70
     0
102
RTVSPropertyOp54
 70
     0
102
RTVSPropertyOp55
 70
     0
102
RTVSPropertyOp56
 70
     0
102
RTVSPropertyOp57
 70
     0
102
RTVSPost2010Prop28
280
     0
102
RTVSPost2010PropOp28
 70
     0
102
RTVSPost2010Prop29
280
     1
102
RTVSPost2010PropOp29
 70
     0
102
RTVSPost2010Prop30
280
     1
102
RTVSPost2010PropOp30
 70
     0
102
RTVSPost2010Prop31
280
     0
102
RTVSPost2010PropOp31
 70
     0
102
RTVSPost2010Prop32
280
     0
102
RTVSPost2010PropOp32
 70
     0
102
RTVSPost2010Prop33
280
     0
102
RTVSPost2010PropOp33
 70
     0
102
RTVSPost2010Prop34
280
     0
102
RTVSPost2010PropOp34
 70
     0
102
RTVSPost2010Prop35
280
     0
102
RTVSPost2010PropOp35
 70
     0
102
RTVSPost2010Prop36
280
     0
102
RTVSPost2010PropOp36
 70
     0
102
RTVSPost2010Prop37
 90
       50
102
RTVSPost2010PropOp37
 70
     0
102
RTVSPost2010Prop38
140
0.0
102
RTVSPost2010PropOp38
 70
     0
102
RTVSPost2010Prop39
140
1.0
102
RTVSPost2010PropOp39
 70
     0
102
RTVSPost2010Prop40
 90
        0
102
RTVSPost2010PropOp40
 70
     0
102
RTVSPost2010Prop41ColorIndex
 90
       18
102
RTVSPost2010Prop41ColorRGB
 90
        0
102
RTVSPost2010PropOp41
 70
     0
102
RTVSPost2010Prop42
 90
       50
102
RTVSPost2010PropOp42
 70
     0
102
RTVSPost2010Prop43
 90
        3
102
RTVSPost2010PropOp43
 70
     0
102
RTVSPost2010Prop44ColorIndex
 90
        5
102
RTVSPost2010Prop44ColorRGB
 90
      255
102
RTVSPost2010PropOp44
 70
     0
102
RTVSPost2010Prop45
280
     0
102
RTVSPost2010PropOp45
 70
     0
102
RTVSPost2010Prop46
 90
       50
102
RTVSPost2010PropOp46
 70
     0
102
RTVSPost2010Prop47
 90
       50
102
RTVSPost2010PropOp47
 70
     0
102
RTVSPost2010Prop48
 90
       50
102
RTVSPost2010PropOp48
 70
     0
102
RTVSPost2010Prop49
280
     0
102
RTVSPost2010PropOp49
 70
     0
102
RTVSPost2010Prop50
 90
       50
102
RTVSPost2010PropOp50
 70
     0
102
RTVSPost2010Prop51ColorIndex
 90
      256
102
RTVSPost2010Prop51ColorRGB
 90
-16777216
102
RTVSPost2010PropOp51
 70
     0
102
RTVSPost2010Prop52
140
1.0
102
RTVSPost2010PropOp52
 70
     0
102
RTVSPost2010Prop53
 90
        2
102
RTVSPost2010PropOp53
 70
     0
102
RTVSPost2010Prop54
  1
strokes_ogs.tif
102
RTVSPost2010PropOp54
 70
     0
102
RTVSPost2010Prop55
280
     0
102
RTVSPost2010PropOp55
 70
     0
102
RTVSPost2010Prop56
140
1.0
102
RTVSPost2010PropOp56
 70
     0
102
RTVSPost2010Prop57
140
1.0
102
RTVSPost2010PropOp57
 70
     0
  0
XRECORD
  5
20C
102
{ACAD_REACTORS
330
20B
102
}
330
20B
100
AcDbXrecord
280
     1
102
RTVSPropertyOp0
 70
     1
102
RTVSPropertyOp1
 70
     1
102
RTVSPropertyOp2
 70
     1
102
RTVSPropertyOp3
 70
     1
102
RTVSPropertyOp4
 70
     1
102
RTVSPropertyOp5
 70
     1
102
RTVSPropertyOp6
 70
     1
102
RTVSPropertyOp7
 70
     1
102
RTVSPropertyOp8
 70
     1
102
RTVSPropertyOp9
 70
     1
102
RTVSPropertyOp10
 70
     1
102
RTVSPropertyOp11
 70
     1
102
RTVSPropertyOp12
 70
     1
102
RTVSPropertyOp13
 70
     1
102
RTVSPropertyOp14
 70
     1
102
RTVSPropertyOp15
 70
     1
102
RTVSPropertyOp16
 70
     1
102
RTVSPropertyOp17
 70
     1
102
RTVSPropertyOp18
 70
     1
102
RTVSPropertyOp19
 70
     1
102
RTVSPropertyOp20
 70
     1
102
RTVSPropertyOp21
 70
     1
102
RTVSPropertyOp22
 70
     1
102
RTVSPropertyOp23
 70
     1
102
RTVSPropertyOp24
 70
     1
102
RTVSPropertyOp25
 70
     1
102
RTVSPropertyOp26
 70
     1
102
RTVSPropertyOp27
 70
     1
102
RTVSPropertyOp28
 70
     1
102
RTVSPropertyOp29
 70
     1
102
RTVSPropertyOp30
 70
     1
102
RTVSPropertyOp31
 70
     1
102
RTVSPropertyOp32
 70
     1
102
RTVSPropertyOp33
 70
     1
102
RTVSPropertyOp34
 70
     1
102
RTVSPropertyOp35
 70
     1
102
RTVSPropertyOp36
 70
     1
102
RTVSPropertyOp37
 70
     1
102
RTVSPropertyOp38
 70
     1
102
RTVSPropertyOp39
 70
     1
102
RTVSPropertyOp40
 70
     1
102
RTVSPropertyOp41
 70
     1
102
RTVSPropertyOp42
 70
     1
102
RTVSPropertyOp43
 70
     1
102
RTVSPropertyOp44
 70
     1
102
RTVSPropertyOp45
 70
     1
102
RTVSPropertyOp46
 70
     1
102
RTVSPropertyOp47
 70
     1
102
RTVSPropertyOp48
 70
     1
102
RTVSPropertyOp49
 70
     1
102
RTVSPropertyOp50
 70
     1
102
RTVSPropertyOp51
 70
     0
102
RTVSPropertyOp52
 70
     0
102
RTVSPropertyOp53
 70
     1
102
RTVSPropertyOp54
 70
     1
102
RTVSPropertyOp55
 70
     1
102
RTVSPropertyOp56
 70
     1
102
RTVSPropertyOp57
 70
     1
102
RTVSPost2010Prop28
280
     0
102
RTVSPost2010PropOp28
 70
     1
102
RTVSPost2010Prop29
280
     1
102
RTVSPost2010PropOp29
 70
     1
102
RTVSPost2010Prop30
280
     1
102
RTVSPost2010PropOp30
 70
     1
102
RTVSPost2010Prop31
280
     0
102
RTVSPost2010PropOp31
 70
     1
102
RTVSPost2010Prop32
280
     0
102
RTVSPost2010PropOp32
 70
     1
102
RTVSPost2010Prop33
280
     0
102
RTVSPost2010PropOp33
 70
     1
102
RTVSPost2010Prop34
280
     0
102
RTVSPost2010PropOp34
 70
     1
102
RTVSPost2010Prop35
280
     0
102
RTVSPost2010PropOp35
 70
     1
102
RTVSPost2010Prop36
280
     0
102
RTVSPost2010PropOp36
 70
     1
102
RTVSPost2010Prop37
 90
       50
102
RTVSPost2010PropOp37
 70
     1
102
RTVSPost2010Prop38
140
0.0
102
RTVSPost2010PropOp38
 70
     1
102
RTVSPost2010Prop39
140
1.0
102
RTVSPost2010PropOp39
 70
     1
102
RTVSPost2010Prop40
 90
        0
102
RTVSPost2010PropOp40
 70
     1
102
RTVSPost2010Prop41ColorIndex
 90
       18
102
RTVSPost2010Prop41ColorRGB
 90
        0
102
RTVSPost2010PropOp41
 70
     1
102
RTVSPost2010Prop42
 90
       50
102
RTVSPost2010PropOp42
 70
     1
102
RTVSPost2010Prop43
 90
        3
102
RTVSPost2010PropOp43
 70
     1
102
RTVSPost2010Prop44ColorIndex
 90
        5
102
RTVSPost2010Prop44ColorRGB
 90
      255
102
RTVSPost2010PropOp44
 70
     1
102
RTVSPost2010Prop45
280
     0
102
RTVSPost2010PropOp45
 70
     1
102
RTVSPost2010Prop46
 90
       50
102
RTVSPost2010PropOp46
 70
     1
102
RTVSPost2010Prop47
 90
       50
102
RTVSPost2010PropOp47
 70
     1
102
RTVSPost2010Prop48
 90
       50
102
RTVSPost2010PropOp48
 70
     1
102
RTVSPost2010Prop49
280
     0
102
RTVSPost2010PropOp49
 70
     1
102
RTVSPost2010Prop50
 90
       50
102
RTVSPost2010PropOp50
 70
     1
102
RTVSPost2010Prop51ColorIndex
 90
      256
102
RTVSPost2010Prop51ColorRGB
 90
-16777216
102
RTVSPost2010PropOp51
 70
     0
102
RTVSPost2010Prop52
140
1.0
102
RTVSPost2010PropOp52
 70
     0
102
RTVSPost2010Prop53
 90
        2
102
RTVSPost2010PropOp53
 70
     1
102
RTVSPost2010Prop54
  1
strokes_ogs.tif
102
RTVSPost2010PropOp54
 70
     1
102
RTVSPost2010Prop55
280
     0
102
RTVSPost2010PropOp55
 70
     1
102
RTVSPost2010Prop56
140
1.0
102
RTVSPost2010PropOp56
 70
     1
102
RTVSPost2010Prop57
140
1.0
102
RTVSPost2010PropOp57
 70
     1
  0
XRECORD
  5
1F0
102
{ACAD_REACTORS
330
1EF
102
}
330
1EF
100
AcDbXrecord
280
     1
102
RTVSPropertyOp0
 70
     1
102
RTVSPropertyOp1
 70
     1
102
RTVSPropertyOp2
 70
     1
102
RTVSPropertyOp3
 70
     1
102
RTVSPropertyOp4
 70
     1
102
RTVSPropertyOp5
 70
     1
102
RTVSPropertyOp6
 70
     1
102
RTVSPropertyOp7
 70
     1
102
RTVSPropertyOp8
 70
     1
102
RTVSPropertyOp9
 70
     1
102
RTVSPropertyOp10
 70
     1
102
RTVSPropertyOp11
 70
     1
102
RTVSPropertyOp12
 70
     1
102
RTVSPropertyOp13
 70
     1
102
RTVSPropertyOp14
 70
     1
102
RTVSPropertyOp15
 70
     1
102
RTVSPropertyOp16
 70
     1
102
RTVSPropertyOp17
 70
     1
102
RTVSPropertyOp18
 70
     1
102
RTVSPropertyOp19
 70
     1
102
RTVSPropertyOp20
 70
     1
102
RTVSPropertyOp21
 70
     1
102
RTVSPropertyOp22
 70
     1
102
RTVSPropertyOp23
 70
     1
102
RTVSPropertyOp24
 70
     1
102
RTVSPropertyOp25
 70
     1
102
RTVSPropertyOp26
 70
     1
102
RTVSPropertyOp27
 70
     1
102
RTVSPropertyOp28
 70
     1
102
RTVSPropertyOp29
 70
     1
102
RTVSPropertyOp30
 70
     1
102
RTVSPropertyOp31
 70
     1
102
RTVSPropertyOp32
 70
     1
102
RTVSPropertyOp33
 70
     1
102
RTVSPropertyOp34
 70
     1
102
RTVSPropertyOp35
 70
     1
102
RTVSPropertyOp36
 70
     1
102
RTVSPropertyOp37
 70
     1
102
RTVSPropertyOp38
 70
     1
102
RTVSPropertyOp39
 70
     1
102
RTVSPropertyOp40
 70
     1
102
RTVSPropertyOp41
 70
     1
102
RTVSPropertyOp42
 70
     1
102
RTVSPropertyOp43
 70
     1
102
RTVSPropertyOp44
 70
     1
102
RTVSPropertyOp45
 70
     1
102
RTVSPropertyOp46
 70
     1
102
RTVSPropertyOp47
 70
     1
102
RTVSPropertyOp48
 70
     1
102
RTVSPropertyOp49
 70
     1
102
RTVSPropertyOp50
 70
     1
102
RTVSPropertyOp51
 70
     0
102
RTVSPropertyOp52
 70
     0
102
RTVSPropertyOp53
 70
     1
102
RTVSPropertyOp54
 70
     1
102
RTVSPropertyOp55
 70
     1
102
RTVSPropertyOp56
 70
     1
102
RTVSPropertyOp57
 70
     1
102
RTVSPost2010Prop28
280
     0
102
RTVSPost2010PropOp28
 70
     1
102
RTVSPost2010Prop29
280
     1
102
RTVSPost2010PropOp29
 70
     1
102
RTVSPost2010Prop30
280
     1
102
RTVSPost2010PropOp30
 70
     1
102
RTVSPost2010Prop31
280
     0
102
RTVSPost2010PropOp31
 70
     1
102
RTVSPost2010Prop32
280
     0
102
RTVSPost2010PropOp32
 70
     1
102
RTVSPost2010Prop33
280
     0
102
RTVSPost2010PropOp33
 70
     1
102
RTVSPost2010Prop34
280
     0
102
RTVSPost2010PropOp34
 70
     1
102
RTVSPost2010Prop35
280
     0
102
RTVSPost2010PropOp35
 70
     1
102
RTVSPost2010Prop36
280
     0
102
RTVSPost2010PropOp36
 70
     1
102
RTVSPost2010Prop37
 90
       50
102
RTVSPost2010PropOp37
 70
     1
102
RTVSPost2010Prop38
140
0.0
102
RTVSPost2010PropOp38
 70
     1
102
RTVSPost2010Prop39
140
1.0
102
RTVSPost2010PropOp39
 70
     1
102
RTVSPost2010Prop40
 90
        0
102
RTVSPost2010PropOp40
 70
     1
102
RTVSPost2010Prop41ColorIndex
 90
       18
102
RTVSPost2010Prop41ColorRGB
 90
        0
102
RTVSPost2010PropOp41
 70
     1
102
RTVSPost2010Prop42
 90
       50
102
RTVSPost2010PropOp42
 70
     1
102
RTVSPost2010Prop43
 90
        3
102
RTVSPost2010PropOp43
 70
     1
102
RTVSPost2010Prop44ColorIndex
 90
        5
102
RTVSPost2010Prop44ColorRGB
 90
      255
102
RTVSPost2010PropOp44
 70
     1
102
RTVSPost2010Prop45
280
     0
102
RTVSPost2010PropOp45
 70
     1
102
RTVSPost2010Prop46
 90
       50
102
RTVSPost2010PropOp46
 70
     1
102
RTVSPost2010Prop47
 90
       50
102
RTVSPost2010PropOp47
 70
     1
102
RTVSPost2010Prop48
 90
       50
102
RTVSPost2010PropOp48
 70
     1
102
RTVSPost2010Prop49
280
     0
102
RTVSPost2010PropOp49
 70
     1
102
RTVSPost2010Prop50
 90
       50
102
RTVSPost2010PropOp50
 70
     1
102
RTVSPost2010Prop51ColorIndex
 90
      256
102
RTVSPost2010Prop51ColorRGB
 90
-16777216
102
RTVSPost2010PropOp51
 70
     0
102
RTVSPost2010Prop52
140
1.0
102
RTVSPost2010PropOp52
 70
     0
102
RTVSPost2010Prop53
 90
        2
102
RTVSPost2010PropOp53
 70
     1
102
RTVSPost2010Prop54
  1
strokes_ogs.tif
102
RTVSPost2010PropOp54
 70
     1
102
RTVSPost2010Prop55
280
     0
102
RTVSPost2010PropOp55
 70
     1
102
RTVSPost2010Prop56
140
1.0
102
RTVSPost2010PropOp56
 70
     1
102
RTVSPost2010Prop57
140
1.0
102
RTVSPost2010PropOp57
 70
     1
  0
XRECORD
  5
1F2
102
{ACAD_REACTORS
330
1F1
102
}
330
1F1
100
AcDbXrecord
280
     1
102
RTVSPropertyOp0
 70
     1
102
RTVSPropertyOp1
 70
     1
102
RTVSPropertyOp2
 70
     1
102
RTVSPropertyOp3
 70
     1
102
RTVSPropertyOp4
 70
     1
102
RTVSPropertyOp5
 70
     1
102
RTVSPropertyOp6
 70
     1
102
RTVSPropertyOp7
 70
     1
102
RTVSPropertyOp8
 70
     1
102
RTVSPropertyOp9
 70
     1
102
RTVSPropertyOp10
 70
     1
102
RTVSPropertyOp11
 70
     1
102
RTVSPropertyOp12
 70
     1
102
RTVSPropertyOp13
 70
     1
102
RTVSPropertyOp14
 70
     1
102
RTVSPropertyOp15
 70
     1
102
RTVSPropertyOp16
 70
     1
102
RTVSPropertyOp17
 70
     1
102
RTVSPropertyOp18
 70
     1
102
RTVSPropertyOp19
 70
     1
102
RTVSPropertyOp20
 70
     1
102
RTVSPropertyOp21
 70
     1
102
RTVSPropertyOp22
 70
     1
102
RTVSPropertyOp23
 70
     1
102
RTVSPropertyOp24
 70
     1
102
RTVSPropertyOp25
 70
     1
102
RTVSPropertyOp26
 70
     1
102
RTVSPropertyOp27
 70
     1
102
RTVSPropertyOp28
 70
     1
102
RTVSPropertyOp29
 70
     1
102
RTVSPropertyOp30
 70
     1
102
RTVSPropertyOp31
 70
     1
102
RTVSPropertyOp32
 70
     1
102
RTVSPropertyOp33
 70
     1
102
RTVSPropertyOp34
 70
     1
102
RTVSPropertyOp35
 70
     1
102
RTVSPropertyOp36
 70
     1
102
RTVSPropertyOp37
 70
     1
102
RTVSPropertyOp38
 70
     1
102
RTVSPropertyOp39
 70
     1
102
RTVSPropertyOp40
 70
     1
102
RTVSPropertyOp41
 70
     1
102
RTVSPropertyOp42
 70
     1
102
RTVSPropertyOp43
 70
     1
102
RTVSPropertyOp44
 70
     1
102
RTVSPropertyOp45
 70
     1
102
RTVSPropertyOp46
 70
     1
102
RTVSPropertyOp47
 70
     1
102
RTVSPropertyOp48
 70
     1
102
RTVSPropertyOp49
 70
     1
102
RTVSPropertyOp50
 70
     1
102
RTVSPropertyOp51
 70
     0
102
RTVSPropertyOp52
 70
     0
102
RTVSPropertyOp53
 70
     1
102
RTVSPropertyOp54
 70
     1
102
RTVSPropertyOp55
 70
     1
102
RTVSPropertyOp56
 70
     1
102
RTVSPropertyOp57
 70
     1
102
RTVSPost2010Prop28
280
     0
102
RTVSPost2010PropOp28
 70
     1
102
RTVSPost2010Prop29
280
     1
102
RTVSPost2010PropOp29
 70
     1
102
RTVSPost2010Prop30
280
     1
102
RTVSPost2010PropOp30
 70
     1
102
RTVSPost2010Prop31
280
     0
102
RTVSPost2010PropOp31
 70
     1
102
RTVSPost2010Prop32
280
     0
102
RTVSPost2010PropOp32
 70
     1
102
RTVSPost2010Prop33
280
     0
102
RTVSPost2010PropOp33
 70
     1
102
RTVSPost2010Prop34
280
     0
102
RTVSPost2010PropOp34
 70
     1
102
RTVSPost2010Prop35
280
     0
102
RTVSPost2010PropOp35
 70
     1
102
RTVSPost2010Prop36
280
     0
102
RTVSPost2010PropOp36
 70
     1
102
RTVSPost2010Prop37
 90
       50
102
RTVSPost2010PropOp37
 70
     1
102
RTVSPost2010Prop38
140
0.0
102
RTVSPost2010PropOp38
 70
     1
102
RTVSPost2010Prop39
140
1.0
102
RTVSPost2010PropOp39
 70
     1
102
RTVSPost2010Prop40
 90
        0
102
RTVSPost2010PropOp40
 70
     1
102
RTVSPost2010Prop41ColorIndex
 90
       18
102
RTVSPost2010Prop41ColorRGB
 90
        0
102
RTVSPost2010PropOp41
 70
     1
102
RTVSPost2010Prop42
 90
       50
102
RTVSPost2010PropOp42
 70
     1
102
RTVSPost2010Prop43
 90
        3
102
RTVSPost2010PropOp43
 70
     1
102
RTVSPost2010Prop44ColorIndex
 90
        5
102
RTVSPost2010Prop44ColorRGB
 90
      255
102
RTVSPost2010PropOp44
 70
     1
102
RTVSPost2010Prop45
280
     0
102
RTVSPost2010PropOp45
 70
     1
102
RTVSPost2010Prop46
 90
       50
102
RTVSPost2010PropOp46
 70
     1
102
RTVSPost2010Prop47
 90
       50
102
RTVSPost2010PropOp47
 70
     1
102
RTVSPost2010Prop48
 90
       50
102
RTVSPost2010PropOp48
 70
     1
102
RTVSPost2010Prop49
280
     0
102
RTVSPost2010PropOp49
 70
     1
102
RTVSPost2010Prop50
 90
       50
102
RTVSPost2010PropOp50
 70
     1
102
RTVSPost2010Prop51ColorIndex
 90
      256
102
RTVSPost2010Prop51ColorRGB
 90
-16777216
102
RTVSPost2010PropOp51
 70
     0
102
RTVSPost2010Prop52
140
1.0
102
RTVSPost2010PropOp52
 70
     0
102
RTVSPost2010Prop53
 90
        2
102
RTVSPost2010PropOp53
 70
     1
102
RTVSPost2010Prop54
  1
strokes_ogs.tif
102
RTVSPost2010PropOp54
 70
     1
102
RTVSPost2010Prop55
280
     0
102
RTVSPost2010PropOp55
 70
     1
102
RTVSPost2010Prop56
140
1.0
102
RTVSPost2010PropOp56
 70
     1
102
RTVSPost2010Prop57
140
1.0
102
RTVSPost2010PropOp57
 70
     1
  0
XRECORD
  5
1F4
102
{ACAD_REACTORS
330
1F3
102
}
330
1F3
100
AcDbXrecord
280
     1
102
RTVSPropertyOp0
 70
     1
102
RTVSPropertyOp1
 70
     1
102
RTVSPropertyOp2
 70
     1
102
RTVSPropertyOp3
 70
     1
102
RTVSPropertyOp4
 70
     1
102
RTVSPropertyOp5
 70
     1
102
RTVSPropertyOp6
 70
     1
102
RTVSPropertyOp7
 70
     1
102
RTVSPropertyOp8
 70
     1
102
RTVSPropertyOp9
 70
     1
102
RTVSPropertyOp10
 70
     1
102
RTVSPropertyOp11
 70
     1
102
RTVSPropertyOp12
 70
     1
102
RTVSPropertyOp13
 70
     1
102
RTVSPropertyOp14
 70
     1
102
RTVSPropertyOp15
 70
     1
102
RTVSPropertyOp16
 70
     1
102
RTVSPropertyOp17
 70
     1
102
RTVSPropertyOp18
 70
     1
102
RTVSPropertyOp19
 70
     1
102
RTVSPropertyOp20
 70
     1
102
RTVSPropertyOp21
 70
     1
102
RTVSPropertyOp22
 70
     1
102
RTVSPropertyOp23
 70
     1
102
RTVSPropertyOp24
 70
     1
102
RTVSPropertyOp25
 70
     1
102
RTVSPropertyOp26
 70
     1
102
RTVSPropertyOp27
 70
     1
102
RTVSPropertyOp28
 70
     1
102
RTVSPropertyOp29
 70
     1
102
RTVSPropertyOp30
 70
     1
102
RTVSPropertyOp31
 70
     1
102
RTVSPropertyOp32
 70
     1
102
RTVSPropertyOp33
 70
     1
102
RTVSPropertyOp34
 70
     1
102
RTVSPropertyOp35
 70
     1
102
RTVSPropertyOp36
 70
     1
102
RTVSPropertyOp37
 70
     1
102
RTVSPropertyOp38
 70
     1
102
RTVSPropertyOp39
 70
     1
102
RTVSPropertyOp40
 70
     1
102
RTVSPropertyOp41
 70
     1
102
RTVSPropertyOp42
 70
     1
102
RTVSPropertyOp43
 70
     1
102
RTVSPropertyOp44
 70
     1
102
RTVSPropertyOp45
 70
     1
102
RTVSPropertyOp46
 70
     1
102
RTVSPropertyOp47
 70
     1
102
RTVSPropertyOp48
 70
     1
102
RTVSPropertyOp49
 70
     1
102
RTVSPropertyOp50
 70
     1
102
RTVSPropertyOp51
 70
     0
102
RTVSPropertyOp52
 70
     0
102
RTVSPropertyOp53
 70
     1
102
RTVSPropertyOp54
 70
     1
102
RTVSPropertyOp55
 70
     1
102
RTVSPropertyOp56
 70
     1
102
RTVSPropertyOp57
 70
     1
102
RTVSPost2010Prop28
280
     0
102
RTVSPost2010PropOp28
 70
     1
102
RTVSPost2010Prop29
280
     1
102
RTVSPost2010PropOp29
 70
     1
102
RTVSPost2010Prop30
280
     1
102
RTVSPost2010PropOp30
 70
     1
102
RTVSPost2010Prop31
280
     0
102
RTVSPost2010PropOp31
 70
     1
102
RTVSPost2010Prop32
280
     0
102
RTVSPost2010PropOp32
 70
     1
102
RTVSPost2010Prop33
280
     0
102
RTVSPost2010PropOp33
 70
     1
102
RTVSPost2010Prop34
280
     0
102
RTVSPost2010PropOp34
 70
     1
102
RTVSPost2010Prop35
280
     0
102
RTVSPost2010PropOp35
 70
     1
102
RTVSPost2010Prop36
280
     0
102
RTVSPost2010PropOp36
 70
     1
102
RTVSPost2010Prop37
 90
       50
102
RTVSPost2010PropOp37
 70
     1
102
RTVSPost2010Prop38
140
0.0
102
RTVSPost2010PropOp38
 70
     1
102
RTVSPost2010Prop39
140
1.0
102
RTVSPost2010PropOp39
 70
     1
102
RTVSPost2010Prop40
 90
        0
102
RTVSPost2010PropOp40
 70
     1
102
RTVSPost2010Prop41ColorIndex
 90
       18
102
RTVSPost2010Prop41ColorRGB
 90
        0
102
RTVSPost2010PropOp41
 70
     1
102
RTVSPost2010Prop42
 90
       50
102
RTVSPost2010PropOp42
 70
     1
102
RTVSPost2010Prop43
 90
        3
102
RTVSPost2010PropOp43
 70
     1
102
RTVSPost2010Prop44ColorIndex
 90
        5
102
RTVSPost2010Prop44ColorRGB
 90
      255
102
RTVSPost2010PropOp44
 70
     1
102
RTVSPost2010Prop45
280
     0
102
RTVSPost2010PropOp45
 70
     1
102
RTVSPost2010Prop46
 90
       50
102
RTVSPost2010PropOp46
 70
     1
102
RTVSPost2010Prop47
 90
       50
102
RTVSPost2010PropOp47
 70
     1
102
RTVSPost2010Prop48
 90
       50
102
RTVSPost2010PropOp48
 70
     1
102
RTVSPost2010Prop49
280
     0
102
RTVSPost2010PropOp49
 70
     1
102
RTVSPost2010Prop50
 90
       50
102
RTVSPost2010PropOp50
 70
     1
102
RTVSPost2010Prop51ColorIndex
 90
      256
102
RTVSPost2010Prop51ColorRGB
 90
-16777216
102
RTVSPost2010PropOp51
 70
     0
102
RTVSPost2010Prop52
140
1.0
102
RTVSPost2010PropOp52
 70
     0
102
RTVSPost2010Prop53
 90
        2
102
RTVSPost2010PropOp53
 70
     1
102
RTVSPost2010Prop54
  1
strokes_ogs.tif
102
RTVSPost2010PropOp54
 70
     1
102
RTVSPost2010Prop55
280
     0
102
RTVSPost2010PropOp55
 70
     1
102
RTVSPost2010Prop56
140
1.0
102
RTVSPost2010PropOp56
 70
     1
102
RTVSPost2010Prop57
140
1.0
102
RTVSPost2010PropOp57
 70
     1
  0
XRECORD
  5
1F6
102
{ACAD_REACTORS
330
1F5
102
}
330
1F5
100
AcDbXrecord
280
     1
102
RTVSPropertyOp0
 70
     1
102
RTVSPropertyOp1
 70
     1
102
RTVSPropertyOp2
 70
     1
102
RTVSPropertyOp3
 70
     1
102
RTVSPropertyOp4
 70
     1
102
RTVSPropertyOp5
 70
     1
102
RTVSPropertyOp6
 70
     1
102
RTVSPropertyOp7
 70
     1
102
RTVSPropertyOp8
 70
     1
102
RTVSPropertyOp9
 70
     1
102
RTVSPropertyOp10
 70
     1
102
RTVSPropertyOp11
 70
     1
102
RTVSPropertyOp12
 70
     1
102
RTVSPropertyOp13
 70
     1
102
RTVSPropertyOp14
 70
     1
102
RTVSPropertyOp15
 70
     1
102
RTVSPropertyOp16
 70
     1
102
RTVSPropertyOp17
 70
     1
102
RTVSPropertyOp18
 70
     1
102
RTVSPropertyOp19
 70
     1
102
RTVSPropertyOp20
 70
     1
102
RTVSPropertyOp21
 70
     1
102
RTVSPropertyOp22
 70
     1
102
RTVSPropertyOp23
 70
     1
102
RTVSPropertyOp24
 70
     1
102
RTVSPropertyOp25
 70
     1
102
RTVSPropertyOp26
 70
     1
102
RTVSPropertyOp27
 70
     1
102
RTVSPropertyOp28
 70
     1
102
RTVSPropertyOp29
 70
     1
102
RTVSPropertyOp30
 70
     1
102
RTVSPropertyOp31
 70
     1
102
RTVSPropertyOp32
 70
     1
102
RTVSPropertyOp33
 70
     1
102
RTVSPropertyOp34
 70
     1
102
RTVSPropertyOp35
 70
     1
102
RTVSPropertyOp36
 70
     1
102
RTVSPropertyOp37
 70
     1
102
RTVSPropertyOp38
 70
     1
102
RTVSPropertyOp39
 70
     1
102
RTVSPropertyOp40
 70
     1
102
RTVSPropertyOp41
 70
     1
102
RTVSPropertyOp42
 70
     1
102
RTVSPropertyOp43
 70
     1
102
RTVSPropertyOp44
 70
     1
102
RTVSPropertyOp45
 70
     1
102
RTVSPropertyOp46
 70
     1
102
RTVSPropertyOp47
 70
     1
102
RTVSPropertyOp48
 70
     1
102
RTVSPropertyOp49
 70
     1
102
RTVSPropertyOp50
 70
     1
102
RTVSPropertyOp51
 70
     0
102
RTVSPropertyOp52
 70
     0
102
RTVSPropertyOp53
 70
     1
102
RTVSPropertyOp54
 70
     1
102
RTVSPropertyOp55
 70
     1
102
RTVSPropertyOp56
 70
     1
102
RTVSPropertyOp57
 70
     1
102
RTVSPost2010Prop28
280
     0
102
RTVSPost2010PropOp28
 70
     1
102
RTVSPost2010Prop29
280
     1
102
RTVSPost2010PropOp29
 70
     1
102
RTVSPost2010Prop30
280
     1
102
RTVSPost2010PropOp30
 70
     1
102
RTVSPost2010Prop31
280
     0
102
RTVSPost2010PropOp31
 70
     1
102
RTVSPost2010Prop32
280
     0
102
RTVSPost2010PropOp32
 70
     1
102
RTVSPost2010Prop33
280
     0
102
RTVSPost2010PropOp33
 70
     1
102
RTVSPost2010Prop34
280
     0
102
RTVSPost2010PropOp34
 70
     1
102
RTVSPost2010Prop35
280
     0
102
RTVSPost2010PropOp35
 70
     1
102
RTVSPost2010Prop36
280
     0
102
RTVSPost2010PropOp36
 70
     1
102
RTVSPost2010Prop37
 90
       50
102
RTVSPost2010PropOp37
 70
     1
102
RTVSPost2010Prop38
140
0.0
102
RTVSPost2010PropOp38
 70
     1
102
RTVSPost2010Prop39
140
1.0
102
RTVSPost2010PropOp39
 70
     1
102
RTVSPost2010Prop40
 90
        0
102
RTVSPost2010PropOp40
 70
     1
102
RTVSPost2010Prop41ColorIndex
 90
       18
102
RTVSPost2010Prop41ColorRGB
 90
        0
102
RTVSPost2010PropOp41
 70
     1
102
RTVSPost2010Prop42
 90
       50
102
RTVSPost2010PropOp42
 70
     1
102
RTVSPost2010Prop43
 90
        3
102
RTVSPost2010PropOp43
 70
     1
102
RTVSPost2010Prop44ColorIndex
 90
        5
102
RTVSPost2010Prop44ColorRGB
 90
      255
102
RTVSPost2010PropOp44
 70
     1
102
RTVSPost2010Prop45
280
     0
102
RTVSPost2010PropOp45
 70
     1
102
RTVSPost2010Prop46
 90
       50
102
RTVSPost2010PropOp46
 70
     1
102
RTVSPost2010Prop47
 90
       50
102
RTVSPost2010PropOp47
 70
     1
102
RTVSPost2010Prop48
 90
       50
102
RTVSPost2010PropOp48
 70
     1
102
RTVSPost2010Prop49
280
     0
102
RTVSPost2010PropOp49
 70
     1
102
RTVSPost2010Prop50
 90
       50
102
RTVSPost2010PropOp50
 70
     1
102
RTVSPost2010Prop51ColorIndex
 90
      256
102
RTVSPost2010Prop51ColorRGB
 90
-16777216
102
RTVSPost2010PropOp51
 70
     0
102
RTVSPost2010Prop52
140
1.0
102
RTVSPost2010PropOp52
 70
     0
102
RTVSPost2010Prop53
 90
        2
102
RTVSPost2010PropOp53
 70
     1
102
RTVSPost2010Prop54
  1
strokes_ogs.tif
102
RTVSPost2010PropOp54
 70
     1
102
RTVSPost2010Prop55
280
     0
102
RTVSPost2010PropOp55
 70
     1
102
RTVSPost2010Prop56
140
1.0
102
RTVSPost2010PropOp56
 70
     1
102
RTVSPost2010Prop57
140
1.0
102
RTVSPost2010PropOp57
 70
     1
  0
XRECORD
  5
1FC
102
{ACAD_REACTORS
330
1FB
102
}
330
1FB
100
AcDbXrecord
280
     1
102
RTVSPropertyOp0
 70
     1
102
RTVSPropertyOp1
 70
     1
102
RTVSPropertyOp2
 70
     1
102
RTVSPropertyOp3
 70
     1
102
RTVSPropertyOp4
 70
     1
102
RTVSPropertyOp5
 70
     1
102
RTVSPropertyOp6
 70
     1
102
RTVSPropertyOp7
 70
     1
102
RTVSPropertyOp8
 70
     1
102
RTVSPropertyOp9
 70
     1
102
RTVSPropertyOp10
 70
     1
102
RTVSPropertyOp11
 70
     1
102
RTVSPropertyOp12
 70
     1
102
RTVSPropertyOp13
 70
     1
102
RTVSPropertyOp14
 70
     1
102
RTVSPropertyOp15
 70
     1
102
RTVSPropertyOp16
 70
     1
102
RTVSPropertyOp17
 70
     1
102
RTVSPropertyOp18
 70
     1
102
RTVSPropertyOp19
 70
     1
102
RTVSPropertyOp20
 70
     1
102
RTVSPropertyOp21
 70
     1
102
RTVSPropertyOp22
 70
     1
102
RTVSPropertyOp23
 70
     1
102
RTVSPropertyOp24
 70
     1
102
RTVSPropertyOp25
 70
     1
102
RTVSPropertyOp26
 70
     1
102
RTVSPropertyOp27
 70
     1
102
RTVSPropertyOp28
 70
     1
102
RTVSPropertyOp29
 70
     1
102
RTVSPropertyOp30
 70
     1
102
RTVSPropertyOp31
 70
     1
102
RTVSPropertyOp32
 70
     1
102
RTVSPropertyOp33
 70
     1
102
RTVSPropertyOp34
 70
     1
102
RTVSPropertyOp35
 70
     1
102
RTVSPropertyOp36
 70
     1
102
RTVSPropertyOp37
 70
     1
102
RTVSPropertyOp38
 70
     1
102
RTVSPropertyOp39
 70
     1
102
RTVSPropertyOp40
 70
     1
102
RTVSPropertyOp41
 70
     1
102
RTVSPropertyOp42
 70
     1
102
RTVSPropertyOp43
 70
     1
102
RTVSPropertyOp44
 70
     1
102
RTVSPropertyOp45
 70
     1
102
RTVSPropertyOp46
 70
     1
102
RTVSPropertyOp47
 70
     1
102
RTVSPropertyOp48
 70
     1
102
RTVSPropertyOp49
 70
     1
102
RTVSPropertyOp50
 70
     1
102
RTVSPropertyOp51
 70
     0
102
RTVSPropertyOp52
 70
     0
102
RTVSPropertyOp53
 70
     1
102
RTVSPropertyOp54
 70
     1
102
RTVSPropertyOp55
 70
     1
102
RTVSPropertyOp56
 70
     1
102
RTVSPropertyOp57
 70
     1
102
RTVSPost2010Prop28
280
     0
102
RTVSPost2010PropOp28
 70
     1
102
RTVSPost2010Prop29
280
     1
102
RTVSPost2010PropOp29
 70
     1
102
RTVSPost2010Prop30
280
     1
102
RTVSPost2010PropOp30
 70
     1
102
RTVSPost2010Prop31
280
     0
102
RTVSPost2010PropOp31
 70
     1
102
RTVSPost2010Prop32
280
     0
102
RTVSPost2010PropOp32
 70
     1
102
RTVSPost2010Prop33
280
     0
102
RTVSPost2010PropOp33
 70
     1
102
RTVSPost2010Prop34
280
     0
102
RTVSPost2010PropOp34
 70
     1
102
RTVSPost2010Prop35
280
     0
102
RTVSPost2010PropOp35
 70
     1
102
RTVSPost2010Prop36
280
     0
102
RTVSPost2010PropOp36
 70
     1
102
RTVSPost2010Prop37
 90
       50
102
RTVSPost2010PropOp37
 70
     1
102
RTVSPost2010Prop38
140
0.0
102
RTVSPost2010PropOp38
 70
     1
102
RTVSPost2010Prop39
140
1.0
102
RTVSPost2010PropOp39
 70
     1
102
RTVSPost2010Prop40
 90
        0
102
RTVSPost2010PropOp40
 70
     1
102
RTVSPost2010Prop41ColorIndex
 90
       18
102
RTVSPost2010Prop41ColorRGB
 90
        0
102
RTVSPost2010PropOp41
 70
     1
102
RTVSPost2010Prop42
 90
       50
102
RTVSPost2010PropOp42
 70
     1
102
RTVSPost2010Prop43
 90
        3
102
RTVSPost2010PropOp43
 70
     1
102
RTVSPost2010Prop44ColorIndex
 90
        5
102
RTVSPost2010Prop44ColorRGB
 90
      255
102
RTVSPost2010PropOp44
 70
     1
102
RTVSPost2010Prop45
280
     0
102
RTVSPost2010PropOp45
 70
     1
102
RTVSPost2010Prop46
 90
       50
102
RTVSPost2010PropOp46
 70
     1
102
RTVSPost2010Prop47
 90
       50
102
RTVSPost2010PropOp47
 70
     1
102
RTVSPost2010Prop48
 90
       50
102
RTVSPost2010PropOp48
 70
     1
102
RTVSPost2010Prop49
280
     0
102
RTVSPost2010PropOp49
 70
     1
102
RTVSPost2010Prop50
 90
       50
102
RTVSPost2010PropOp50
 70
     1
102
RTVSPost2010Prop51ColorIndex
 90
      256
102
RTVSPost2010Prop51ColorRGB
 90
-16777216
102
RTVSPost2010PropOp51
 70
     0
102
RTVSPost2010Prop52
140
1.0
102
RTVSPost2010PropOp52
 70
     0
102
RTVSPost2010Prop53
 90
        2
102
RTVSPost2010PropOp53
 70
     1
102
RTVSPost2010Prop54
  1
strokes_ogs.tif
102
RTVSPost2010PropOp54
 70
     1
102
RTVSPost2010Prop55
280
     0
102
RTVSPost2010PropOp55
 70
     1
102
RTVSPost2010Prop56
140
1.0
102
RTVSPost2010PropOp56
 70
     1
102
RTVSPost2010Prop57
140
1.0
102
RTVSPost2010PropOp57
 70
     1
  0
XRECORD
  5
210
102
{ACAD_REACTORS
330
20F
102
}
330
20F
100
AcDbXrecord
280
     1
102
RTVSPropertyOp0
 70
     0
102
RTVSPropertyOp1
 70
     0
102
RTVSPropertyOp2
 70
     0
102
RTVSPropertyOp3
 70
     0
102
RTVSPropertyOp4
 70
     0
102
RTVSPropertyOp5
 70
     0
102
RTVSPropertyOp6
 70
     0
102
RTVSPropertyOp7
 70
     0
102
RTVSPropertyOp8
 70
     0
102
RTVSPropertyOp9
 70
     0
102
RTVSPropertyOp10
 70
     0
102
RTVSPropertyOp11
 70
     0
102
RTVSPropertyOp12
 70
     0
102
RTVSPropertyOp13
 70
     0
102
RTVSPropertyOp14
 70
     2
102
RTVSPropertyOp15
 70
     0
102
RTVSPropertyOp16
 70
     0
102
RTVSPropertyOp17
 70
     0
102
RTVSPropertyOp18
 70
     0
102
RTVSPropertyOp19
 70
     0
102
RTVSPropertyOp20
 70
     0
102
RTVSPropertyOp21
 70
     0
102
RTVSPropertyOp22
 70
     0
102
RTVSPropertyOp23
 70
     0
102
RTVSPropertyOp24
 70
     0
102
RTVSPropertyOp25
 70
     0
102
RTVSPropertyOp26
 70
     0
102
RTVSPropertyOp27
 70
     0
102
RTVSPropertyOp28
 70
     0
102
RTVSPropertyOp29
 70
     0
102
RTVSPropertyOp30
 70
     0
102
RTVSPropertyOp31
 70
     0
102
RTVSPropertyOp32
 70
     0
102
RTVSPropertyOp33
 70
     0
102
RTVSPropertyOp34
 70
     0
102
RTVSPropertyOp35
 70
     0
102
RTVSPropertyOp36
 70
     0
102
RTVSPropertyOp37
 70
     0
102
RTVSPropertyOp38
 70
     0
102
RTVSPropertyOp39
 70
     0
102
RTVSPropertyOp40
 70
     0
102
RTVSPropertyOp41
 70
     0
102
RTVSPropertyOp42
 70
     0
102
RTVSPropertyOp43
 70
     0
102
RTVSPropertyOp44
 70
     0
102
RTVSPropertyOp45
 70
     0
102
RTVSPropertyOp46
 70
     0
102
RTVSPropertyOp47
 70
     0
102
RTVSPropertyOp48
 70
     0
102
RTVSPropertyOp49
 70
     0
102
RTVSPropertyOp50
 70
     0
102
RTVSPropertyOp51
 70
     0
102
RTVSPropertyOp52
 70
     0
102
RTVSPropertyOp53
 70
     0
102
RTVSPropertyOp54
 70
     0
102
RTVSPropertyOp55
 70
     0
102
RTVSPropertyOp56
 70
     0
102
RTVSPropertyOp57
 70
     0
102
RTVSPost2010Prop28
280
     0
102
RTVSPost2010PropOp28
 70
     0
102
RTVSPost2010Prop29
280
     1
102
RTVSPost2010PropOp29
 70
     0
102
RTVSPost2010Prop30
280
     1
102
RTVSPost2010PropOp30
 70
     0
102
RTVSPost2010Prop31
280
     0
102
RTVSPost2010PropOp31
 70
     0
102
RTVSPost2010Prop32
280
     0
102
RTVSPost2010PropOp32
 70
     0
102
RTVSPost2010Prop33
280
     0
102
RTVSPost2010PropOp33
 70
     0
102
RTVSPost2010Prop34
280
     0
102
RTVSPost2010PropOp34
 70
     0
102
RTVSPost2010Prop35
280
     0
102
RTVSPost2010PropOp35
 70
     0
102
RTVSPost2010Prop36
280
     0
102
RTVSPost2010PropOp36
 70
     0
102
RTVSPost2010Prop37
 90
       50
102
RTVSPost2010PropOp37
 70
     0
102
RTVSPost2010Prop38
140
0.0
102
RTVSPost2010PropOp38
 70
     0
102
RTVSPost2010Prop39
140
1.0
102
RTVSPost2010PropOp39
 70
     0
102
RTVSPost2010Prop40
 90
        0
102
RTVSPost2010PropOp40
 70
     0
102
RTVSPost2010Prop41ColorIndex
 90
       18
102
RTVSPost2010Prop41ColorRGB
 90
        0
102
RTVSPost2010PropOp41
 70
     0
102
RTVSPost2010Prop42
 90
       50
102
RTVSPost2010PropOp42
 70
     0
102
RTVSPost2010Prop43
 90
        3
102
RTVSPost2010PropOp43
 70
     0
102
RTVSPost2010Prop44ColorIndex
 90
        5
102
RTVSPost2010Prop44ColorRGB
 90
      255
102
RTVSPost2010PropOp44
 70
     0
102
RTVSPost2010Prop45
280
     0
102
RTVSPost2010PropOp45
 70
     0
102
RTVSPost2010Prop46
 90
       50
102
RTVSPost2010PropOp46
 70
     0
102
RTVSPost2010Prop47
 90
       50
102
RTVSPost2010PropOp47
 70
     0
102
RTVSPost2010Prop48
 90
       50
102
RTVSPost2010PropOp48
 70
     0
102
RTVSPost2010Prop49
280
     0
102
RTVSPost2010PropOp49
 70
     0
102
RTVSPost2010Prop50
 90
       50
102
RTVSPost2010PropOp50
 70
     0
102
RTVSPost2010Prop51ColorIndex
 90
      256
102
RTVSPost2010Prop51ColorRGB
 90
-16777216
102
RTVSPost2010PropOp51
 70
     0
102
RTVSPost2010Prop52
140
1.0
102
RTVSPost2010PropOp52
 70
     0
102
RTVSPost2010Prop53
 90
        2
102
RTVSPost2010PropOp53
 70
     0
102
RTVSPost2010Prop54
  1
strokes_ogs.tif
102
RTVSPost2010PropOp54
 70
     0
102
RTVSPost2010Prop55
280
     0
102
RTVSPost2010PropOp55
 70
     0
102
RTVSPost2010Prop56
140
1.0
102
RTVSPost2010PropOp56
 70
     0
102
RTVSPost2010Prop57
140
1.0
102
RTVSPost2010PropOp57
 70
     0
  0
XRECORD
  5
20A
102
{ACAD_REACTORS
330
209
102
}
330
209
100
AcDbXrecord
280
     1
102
RTVSPropertyOp0
 70
     1
102
RTVSPropertyOp1
 70
     1
102
RTVSPropertyOp2
 70
     1
102
RTVSPropertyOp3
 70
     1
102
RTVSPropertyOp4
 70
     1
102
RTVSPropertyOp5
 70
     1
102
RTVSPropertyOp6
 70
     1
102
RTVSPropertyOp7
 70
     1
102
RTVSPropertyOp8
 70
     1
102
RTVSPropertyOp9
 70
     1
102
RTVSPropertyOp10
 70
     1
102
RTVSPropertyOp11
 70
     1
102
RTVSPropertyOp12
 70
     1
102
RTVSPropertyOp13
 70
     1
102
RTVSPropertyOp14
 70
     1
102
RTVSPropertyOp15
 70
     1
102
RTVSPropertyOp16
 70
     1
102
RTVSPropertyOp17
 70
     1
102
RTVSPropertyOp18
 70
     1
102
RTVSPropertyOp19
 70
     1
102
RTVSPropertyOp20
 70
     1
102
RTVSPropertyOp21
 70
     1
102
RTVSPropertyOp22
 70
     1
102
RTVSPropertyOp23
 70
     1
102
RTVSPropertyOp24
 70
     1
102
RTVSPropertyOp25
 70
     1
102
RTVSPropertyOp26
 70
     1
102
RTVSPropertyOp27
 70
     1
102
RTVSPropertyOp28
 70
     1
102
RTVSPropertyOp29
 70
     1
102
RTVSPropertyOp30
 70
     1
102
RTVSPropertyOp31
 70
     1
102
RTVSPropertyOp32
 70
     1
102
RTVSPropertyOp33
 70
     1
102
RTVSPropertyOp34
 70
     1
102
RTVSPropertyOp35
 70
     1
102
RTVSPropertyOp36
 70
     1
102
RTVSPropertyOp37
 70
     1
102
RTVSPropertyOp38
 70
     1
102
RTVSPropertyOp39
 70
     1
102
RTVSPropertyOp40
 70
     1
102
RTVSPropertyOp41
 70
     1
102
RTVSPropertyOp42
 70
     1
102
RTVSPropertyOp43
 70
     1
102
RTVSPropertyOp44
 70
     1
102
RTVSPropertyOp45
 70
     1
102
RTVSPropertyOp46
 70
     1
102
RTVSPropertyOp47
 70
     1
102
RTVSPropertyOp48
 70
     1
102
RTVSPropertyOp49
 70
     1
102
RTVSPropertyOp50
 70
     1
102
RTVSPropertyOp51
 70
     0
102
RTVSPropertyOp52
 70
     0
102
RTVSPropertyOp53
 70
     1
102
RTVSPropertyOp54
 70
     1
102
RTVSPropertyOp55
 70
     1
102
RTVSPropertyOp56
 70
     1
102
RTVSPropertyOp57
 70
     1
102
RTVSPost2010Prop28
280
     0
102
RTVSPost2010PropOp28
 70
     1
102
RTVSPost2010Prop29
280
     1
102
RTVSPost2010PropOp29
 70
     1
102
RTVSPost2010Prop30
280
     1
102
RTVSPost2010PropOp30
 70
     1
102
RTVSPost2010Prop31
280
     0
102
RTVSPost2010PropOp31
 70
     1
102
RTVSPost2010Prop32
280
     0
102
RTVSPost2010PropOp32
 70
     1
102
RTVSPost2010Prop33
280
     0
102
RTVSPost2010PropOp33
 70
     1
102
RTVSPost2010Prop34
280
     0
102
RTVSPost2010PropOp34
 70
     1
102
RTVSPost2010Prop35
280
     0
102
RTVSPost2010PropOp35
 70
     1
102
RTVSPost2010Prop36
280
     0
102
RTVSPost2010PropOp36
 70
     1
102
RTVSPost2010Prop37
 90
       50
102
RTVSPost2010PropOp37
 70
     1
102
RTVSPost2010Prop38
140
0.0
102
RTVSPost2010PropOp38
 70
     1
102
RTVSPost2010Prop39
140
1.0
102
RTVSPost2010PropOp39
 70
     1
102
RTVSPost2010Prop40
 90
        0
102
RTVSPost2010PropOp40
 70
     1
102
RTVSPost2010Prop41ColorIndex
 90
       18
102
RTVSPost2010Prop41ColorRGB
 90
        0
102
RTVSPost2010PropOp41
 70
     1
102
RTVSPost2010Prop42
 90
       50
102
RTVSPost2010PropOp42
 70
     1
102
RTVSPost2010Prop43
 90
        3
102
RTVSPost2010PropOp43
 70
     1
102
RTVSPost2010Prop44ColorIndex
 90
        5
102
RTVSPost2010Prop44ColorRGB
 90
      255
102
RTVSPost2010PropOp44
 70
     1
102
RTVSPost2010Prop45
280
     0
102
RTVSPost2010PropOp45
 70
     1
102
RTVSPost2010Prop46
 90
       50
102
RTVSPost2010PropOp46
 70
     1
102
RTVSPost2010Prop47
 90
       50
102
RTVSPost2010PropOp47
 70
     1
102
RTVSPost2010Prop48
 90
       50
102
RTVSPost2010PropOp48
 70
     1
102
RTVSPost2010Prop49
280
     0
102
RTVSPost2010PropOp49
 70
     1
102
RTVSPost2010Prop50
 90
       50
102
RTVSPost2010PropOp50
 70
     1
102
RTVSPost2010Prop51ColorIndex
 90
      256
102
RTVSPost2010Prop51ColorRGB
 90
-16777216
102
RTVSPost2010PropOp51
 70
     0
102
RTVSPost2010Prop52
140
1.0
102
RTVSPost2010PropOp52
 70
     0
102
RTVSPost2010Prop53
 90
        2
102
RTVSPost2010PropOp53
 70
     1
102
RTVSPost2010Prop54
  1
strokes_ogs.tif
102
RTVSPost2010PropOp54
 70
     1
102
RTVSPost2010Prop55
280
     0
102
RTVSPost2010PropOp55
 70
     1
102
RTVSPost2010Prop56
140
1.0
102
RTVSPost2010PropOp56
 70
     1
102
RTVSPost2010Prop57
140
1.0
102
RTVSPost2010PropOp57
 70
     1
  0
XRECORD
  5
212
102
{ACAD_REACTORS
330
211
102
}
330
211
100
AcDbXrecord
280
     1
102
RTVSPropertyOp0
 70
     0
102
RTVSPropertyOp1
 70
     0
102
RTVSPropertyOp2
 70
     0
102
RTVSPropertyOp3
 70
     0
102
RTVSPropertyOp4
 70
     0
102
RTVSPropertyOp5
 70
     0
102
RTVSPropertyOp6
 70
     0
102
RTVSPropertyOp7
 70
     0
102
RTVSPropertyOp8
 70
     0
102
RTVSPropertyOp9
 70
     0
102
RTVSPropertyOp10
 70
     0
102
RTVSPropertyOp11
 70
     0
102
RTVSPropertyOp12
 70
     0
102
RTVSPropertyOp13
 70
     0
102
RTVSPropertyOp14
 70
     2
102
RTVSPropertyOp15
 70
     0
102
RTVSPropertyOp16
 70
     0
102
RTVSPropertyOp17
 70
     0
102
RTVSPropertyOp18
 70
     0
102
RTVSPropertyOp19
 70
     0
102
RTVSPropertyOp20
 70
     0
102
RTVSPropertyOp21
 70
     0
102
RTVSPropertyOp22
 70
     0
102
RTVSPropertyOp23
 70
     0
102
RTVSPropertyOp24
 70
     0
102
RTVSPropertyOp25
 70
     0
102
RTVSPropertyOp26
 70
     0
102
RTVSPropertyOp27
 70
     0
102
RTVSPropertyOp28
 70
     0
102
RTVSPropertyOp29
 70
     0
102
RTVSPropertyOp30
 70
     0
102
RTVSPropertyOp31
 70
     0
102
RTVSPropertyOp32
 70
     0
102
RTVSPropertyOp33
 70
     0
102
RTVSPropertyOp34
 70
     0
102
RTVSPropertyOp35
 70
     0
102
RTVSPropertyOp36
 70
     0
102
RTVSPropertyOp37
 70
     0
102
RTVSPropertyOp38
 70
     0
102
RTVSPropertyOp39
 70
     0
102
RTVSPropertyOp40
 70
     0
102
RTVSPropertyOp41
 70
     0
102
RTVSPropertyOp42
 70
     0
102
RTVSPropertyOp43
 70
     0
102
RTVSPropertyOp44
 70
     0
102
RTVSPropertyOp45
 70
     0
102
RTVSPropertyOp46
 70
     0
102
RTVSPropertyOp47
 70
     0
102
RTVSPropertyOp48
 70
     0
102
RTVSPropertyOp49
 70
     0
102
RTVSPropertyOp50
 70
     0
102
RTVSPropertyOp51
 70
     0
102
RTVSPropertyOp52
 70
     0
102
RTVSPropertyOp53
 70
     0
102
RTVSPropertyOp54
 70
     0
102
RTVSPropertyOp55
 70
     0
102
RTVSPropertyOp56
 70
     0
102
RTVSPropertyOp57
 70
     0
102
RTVSPost2010Prop28
280
     0
102
RTVSPost2010PropOp28
 70
     0
102
RTVSPost2010Prop29
280
     1
102
RTVSPost2010PropOp29
 70
     0
102
RTVSPost2010Prop30
280
     1
102
RTVSPost2010PropOp30
 70
     0
102
RTVSPost2010Prop31
280
     0
102
RTVSPost2010PropOp31
 70
     0
102
RTVSPost2010Prop32
280
     0
102
RTVSPost2010PropOp32
 70
     0
102
RTVSPost2010Prop33
280
     0
102
RTVSPost2010PropOp33
 70
     0
102
RTVSPost2010Prop34
280
     0
102
RTVSPost2010PropOp34
 70
     0
102
RTVSPost2010Prop35
280
     0
102
RTVSPost2010PropOp35
 70
     0
102
RTVSPost2010Prop36
280
     0
102
RTVSPost2010PropOp36
 70
     0
102
RTVSPost2010Prop37
 90
       50
102
RTVSPost2010PropOp37
 70
     0
102
RTVSPost2010Prop38
140
0.0
102
RTVSPost2010PropOp38
 70
     0
102
RTVSPost2010Prop39
140
1.0
102
RTVSPost2010PropOp39
 70
     0
102
RTVSPost2010Prop40
 90
        0
102
RTVSPost2010PropOp40
 70
     0
102
RTVSPost2010Prop41ColorIndex
 90
       18
102
RTVSPost2010Prop41ColorRGB
 90
        0
102
RTVSPost2010PropOp41
 70
     0
102
RTVSPost2010Prop42
 90
       50
102
RTVSPost2010PropOp42
 70
     0
102
RTVSPost2010Prop43
 90
        3
102
RTVSPost2010PropOp43
 70
     0
102
RTVSPost2010Prop44ColorIndex
 90
        5
102
RTVSPost2010Prop44ColorRGB
 90
      255
102
RTVSPost2010PropOp44
 70
     0
102
RTVSPost2010Prop45
280
     0
102
RTVSPost2010PropOp45
 70
     0
102
RTVSPost2010Prop46
 90
       50
102
RTVSPost2010PropOp46
 70
     0
102
RTVSPost2010Prop47
 90
       50
102
RTVSPost2010PropOp47
 70
     0
102
RTVSPost2010Prop48
 90
       50
102
RTVSPost2010PropOp48
 70
     0
102
RTVSPost2010Prop49
280
     0
102
RTVSPost2010PropOp49
 70
     0
102
RTVSPost2010Prop50
 90
       50
102
RTVSPost2010PropOp50
 70
     0
102
RTVSPost2010Prop51ColorIndex
 90
      256
102
RTVSPost2010Prop51ColorRGB
 90
-16777216
102
RTVSPost2010PropOp51
 70
     0
102
RTVSPost2010Prop52
140
1.0
102
RTVSPost2010PropOp52
 70
     0
102
RTVSPost2010Prop53
 90
        2
102
RTVSPost2010PropOp53
 70
     0
102
RTVSPost2010Prop54
  1
strokes_ogs.tif
102
RTVSPost2010PropOp54
 70
     0
102
RTVSPost2010Prop55
280
     0
102
RTVSPost2010PropOp55
 70
     0
102
RTVSPost2010Prop56
140
1.0
102
RTVSPost2010PropOp56
 70
     0
102
RTVSPost2010Prop57
140
1.0
102
RTVSPost2010PropOp57
 70
     0
  0
XRECORD
  5
200
102
{ACAD_REACTORS
330
1FF
102
}
330
1FF
100
AcDbXrecord
280
     1
102
RTVSPropertyOp0
 70
     1
102
RTVSPropertyOp1
 70
     1
102
RTVSPropertyOp2
 70
     1
102
RTVSPropertyOp3
 70
     1
102
RTVSPropertyOp4
 70
     1
102
RTVSPropertyOp5
 70
     1
102
RTVSPropertyOp6
 70
     1
102
RTVSPropertyOp7
 70
     1
102
RTVSPropertyOp8
 70
     1
102
RTVSPropertyOp9
 70
     1
102
RTVSPropertyOp10
 70
     1
102
RTVSPropertyOp11
 70
     1
102
RTVSPropertyOp12
 70
     1
102
RTVSPropertyOp13
 70
     1
102
RTVSPropertyOp14
 70
     1
102
RTVSPropertyOp15
 70
     1
102
RTVSPropertyOp16
 70
     1
102
RTVSPropertyOp17
 70
     1
102
RTVSPropertyOp18
 70
     1
102
RTVSPropertyOp19
 70
     1
102
RTVSPropertyOp20
 70
     1
102
RTVSPropertyOp21
 70
     1
102
RTVSPropertyOp22
 70
     1
102
RTVSPropertyOp23
 70
     1
102
RTVSPropertyOp24
 70
     1
102
RTVSPropertyOp25
 70
     1
102
RTVSPropertyOp26
 70
     1
102
RTVSPropertyOp27
 70
     1
102
RTVSPropertyOp28
 70
     1
102
RTVSPropertyOp29
 70
     1
102
RTVSPropertyOp30
 70
     1
102
RTVSPropertyOp31
 70
     1
102
RTVSPropertyOp32
 70
     1
102
RTVSPropertyOp33
 70
     1
102
RTVSPropertyOp34
 70
     1
102
RTVSPropertyOp35
 70
     1
102
RTVSPropertyOp36
 70
     1
102
RTVSPropertyOp37
 70
     1
102
RTVSPropertyOp38
 70
     1
102
RTVSPropertyOp39
 70
     1
102
RTVSPropertyOp40
 70
     1
102
RTVSPropertyOp41
 70
     1
102
RTVSPropertyOp42
 70
     1
102
RTVSPropertyOp43
 70
     1
102
RTVSPropertyOp44
 70
     1
102
RTVSPropertyOp45
 70
     1
102
RTVSPropertyOp46
 70
     1
102
RTVSPropertyOp47
 70
     1
102
RTVSPropertyOp48
 70
     1
102
RTVSPropertyOp49
 70
     1
102
RTVSPropertyOp50
 70
     1
102
RTVSPropertyOp51
 70
     0
102
RTVSPropertyOp52
 70
     0
102
RTVSPropertyOp53
 70
     1
102
RTVSPropertyOp54
 70
     1
102
RTVSPropertyOp55
 70
     1
102
RTVSPropertyOp56
 70
     1
102
RTVSPropertyOp57
 70
     1
102
RTVSPost2010Prop28
280
     0
102
RTVSPost2010PropOp28
 70
     1
102
RTVSPost2010Prop29
280
     1
102
RTVSPost2010PropOp29
 70
     1
102
RTVSPost2010Prop30
280
     1
102
RTVSPost2010PropOp30
 70
     1
102
RTVSPost2010Prop31
280
     0
102
RTVSPost2010PropOp31
 70
     1
102
RTVSPost2010Prop32
280
     0
102
RTVSPost2010PropOp32
 70
     1
102
RTVSPost2010Prop33
280
     0
102
RTVSPost2010PropOp33
 70
     1
102
RTVSPost2010Prop34
280
     0
102
RTVSPost2010PropOp34
 70
     1
102
RTVSPost2010Prop35
280
     0
102
RTVSPost2010PropOp35
 70
     1
102
RTVSPost2010Prop36
280
     0
102
RTVSPost2010PropOp36
 70
     1
102
RTVSPost2010Prop37
 90
       50
102
RTVSPost2010PropOp37
 70
     1
102
RTVSPost2010Prop38
140
0.0
102
RTVSPost2010PropOp38
 70
     1
102
RTVSPost2010Prop39
140
1.0
102
RTVSPost2010PropOp39
 70
     1
102
RTVSPost2010Prop40
 90
        0
102
RTVSPost2010PropOp40
 70
     1
102
RTVSPost2010Prop41ColorIndex
 90
       18
102
RTVSPost2010Prop41ColorRGB
 90
        0
102
RTVSPost2010PropOp41
 70
     1
102
RTVSPost2010Prop42
 90
       50
102
RTVSPost2010PropOp42
 70
     1
102
RTVSPost2010Prop43
 90
        3
102
RTVSPost2010PropOp43
 70
     1
102
RTVSPost2010Prop44ColorIndex
 90
        5
102
RTVSPost2010Prop44ColorRGB
 90
      255
102
RTVSPost2010PropOp44
 70
     1
102
RTVSPost2010Prop45
280
     0
102
RTVSPost2010PropOp45
 70
     1
102
RTVSPost2010Prop46
 90
       50
102
RTVSPost2010PropOp46
 70
     1
102
RTVSPost2010Prop47
 90
       50
102
RTVSPost2010PropOp47
 70
     1
102
RTVSPost2010Prop48
 90
       50
102
RTVSPost2010PropOp48
 70
     1
102
RTVSPost2010Prop49
280
     0
102
RTVSPost2010PropOp49
 70
     1
102
RTVSPost2010Prop50
 90
       50
102
RTVSPost2010PropOp50
 70
     1
102
RTVSPost2010Prop51ColorIndex
 90
      256
102
RTVSPost2010Prop51ColorRGB
 90
-16777216
102
RTVSPost2010PropOp51
 70
     0
102
RTVSPost2010Prop52
140
1.0
102
RTVSPost2010PropOp52
 70
     0
102
RTVSPost2010Prop53
 90
        2
102
RTVSPost2010PropOp53
 70
     1
102
RTVSPost2010Prop54
  1
strokes_ogs.tif
102
RTVSPost2010PropOp54
 70
     1
102
RTVSPost2010Prop55
280
     0
102
RTVSPost2010PropOp55
 70
     1
102
RTVSPost2010Prop56
140
1.0
102
RTVSPost2010PropOp56
 70
     1
102
RTVSPost2010Prop57
140
1.0
102
RTVSPost2010PropOp57
 70
     1
  0
XRECORD
  5
21E
102
{ACAD_REACTORS
330
21D
102
}
330
21D
100
AcDbXrecord
280
     1
102
RTVSPropertyOp0
 70
     1
102
RTVSPropertyOp1
 70
     1
102
RTVSPropertyOp2
 70
     1
102
RTVSPropertyOp3
 70
     1
102
RTVSPropertyOp4
 70
     1
102
RTVSPropertyOp5
 70
     1
102
RTVSPropertyOp6
 70
     1
102
RTVSPropertyOp7
 70
     1
102
RTVSPropertyOp8
 70
     1
102
RTVSPropertyOp9
 70
     1
102
RTVSPropertyOp10
 70
     1
102
RTVSPropertyOp11
 70
     1
102
RTVSPropertyOp12
 70
     1
102
RTVSPropertyOp13
 70
     1
102
RTVSPropertyOp14
 70
     1
102
RTVSPropertyOp15
 70
     1
102
RTVSPropertyOp16
 70
     1
102
RTVSPropertyOp17
 70
     1
102
RTVSPropertyOp18
 70
     1
102
RTVSPropertyOp19
 70
     1
102
RTVSPropertyOp20
 70
     1
102
RTVSPropertyOp21
 70
     1
102
RTVSPropertyOp22
 70
     1
102
RTVSPropertyOp23
 70
     1
102
RTVSPropertyOp24
 70
     1
102
RTVSPropertyOp25
 70
     1
102
RTVSPropertyOp26
 70
     1
102
RTVSPropertyOp27
 70
     1
102
RTVSPropertyOp28
 70
     1
102
RTVSPropertyOp29
 70
     1
102
RTVSPropertyOp30
 70
     1
102
RTVSPropertyOp31
 70
     1
102
RTVSPropertyOp32
 70
     1
102
RTVSPropertyOp33
 70
     1
102
RTVSPropertyOp34
 70
     1
102
RTVSPropertyOp35
 70
     1
102
RTVSPropertyOp36
 70
     1
102
RTVSPropertyOp37
 70
     1
102
RTVSPropertyOp38
 70
     1
102
RTVSPropertyOp39
 70
     1
102
RTVSPropertyOp40
 70
     1
102
RTVSPropertyOp41
 70
     1
102
RTVSPropertyOp42
 70
     1
102
RTVSPropertyOp43
 70
     1
102
RTVSPropertyOp44
 70
     1
102
RTVSPropertyOp45
 70
     1
102
RTVSPropertyOp46
 70
     1
102
RTVSPropertyOp47
 70
     1
102
RTVSPropertyOp48
 70
     1
102
RTVSPropertyOp49
 70
     1
102
RTVSPropertyOp50
 70
     1
102
RTVSPropertyOp51
 70
     0
102
RTVSPropertyOp52
 70
     0
102
RTVSPropertyOp53
 70
     1
102
RTVSPropertyOp54
 70
     1
102
RTVSPropertyOp55
 70
     1
102
RTVSPropertyOp56
 70
     1
102
RTVSPropertyOp57
 70
     1
102
RTVSPost2010Prop28
280
     0
102
RTVSPost2010PropOp28
 70
     1
102
RTVSPost2010Prop29
280
     1
102
RTVSPost2010PropOp29
 70
     1
102
RTVSPost2010Prop30
280
     1
102
RTVSPost2010PropOp30
 70
     1
102
RTVSPost2010Prop31
280
     0
102
RTVSPost2010PropOp31
 70
     1
102
RTVSPost2010Prop32
280
     0
102
RTVSPost2010PropOp32
 70
     1
102
RTVSPost2010Prop33
280
     0
102
RTVSPost2010PropOp33
 70
     1
102
RTVSPost2010Prop34
280
     0
102
RTVSPost2010PropOp34
 70
     1
102
RTVSPost2010Prop35
280
     0
102
RTVSPost2010PropOp35
 70
     1
102
RTVSPost2010Prop36
280
     0
102
RTVSPost2010PropOp36
 70
     1
102
RTVSPost2010Prop37
 90
       50
102
RTVSPost2010PropOp37
 70
     1
102
RTVSPost2010Prop38
140
0.0
102
RTVSPost2010PropOp38
 70
     1
102
RTVSPost2010Prop39
140
1.0
102
RTVSPost2010PropOp39
 70
     1
102
RTVSPost2010Prop40
 90
        0
102
RTVSPost2010PropOp40
 70
     1
102
RTVSPost2010Prop41ColorIndex
 90
       18
102
RTVSPost2010Prop41ColorRGB
 90
        0
102
RTVSPost2010PropOp41
 70
     1
102
RTVSPost2010Prop42
 90
       50
102
RTVSPost2010PropOp42
 70
     1
102
RTVSPost2010Prop43
 90
        3
102
RTVSPost2010PropOp43
 70
     1
102
RTVSPost2010Prop44ColorIndex
 90
        5
102
RTVSPost2010Prop44ColorRGB
 90
      255
102
RTVSPost2010PropOp44
 70
     1
102
RTVSPost2010Prop45
280
     0
102
RTVSPost2010PropOp45
 70
     1
102
RTVSPost2010Prop46
 90
       50
102
RTVSPost2010PropOp46
 70
     1
102
RTVSPost2010Prop47
 90
       50
102
RTVSPost2010PropOp47
 70
     1
102
RTVSPost2010Prop48
 90
       50
102
RTVSPost2010PropOp48
 70
     1
102
RTVSPost2010Prop49
280
     0
102
RTVSPost2010PropOp49
 70
     1
102
RTVSPost2010Prop50
 90
       50
102
RTVSPost2010PropOp50
 70
     1
102
RTVSPost2010Prop51ColorIndex
 90
      256
102
RTVSPost2010Prop51ColorRGB
 90
-16777216
102
RTVSPost2010PropOp51
 70
     0
102
RTVSPost2010Prop52
140
1.0
102
RTVSPost2010PropOp52
 70
     0
102
RTVSPost2010Prop53
 90
        2
102
RTVSPost2010PropOp53
 70
     1
102
RTVSPost2010Prop54
  1
strokes_ogs.tif
102
RTVSPost2010PropOp54
 70
     1
102
RTVSPost2010Prop55
280
     0
102
RTVSPost2010PropOp55
 70
     1
102
RTVSPost2010Prop56
140
1.0
102
RTVSPost2010PropOp56
 70
     1
102
RTVSPost2010Prop57
140
1.0
102
RTVSPost2010PropOp57
 70
     1
  0
XRECORD
  5
21C
102
{ACAD_REACTORS
330
21B
102
}
330
21B
100
AcDbXrecord
280
     1
102
RTVSPropertyOp0
 70
     1
102
RTVSPropertyOp1
 70
     1
102
RTVSPropertyOp2
 70
     1
102
RTVSPropertyOp3
 70
     1
102
RTVSPropertyOp4
 70
     1
102
RTVSPropertyOp5
 70
     1
102
RTVSPropertyOp6
 70
     1
102
RTVSPropertyOp7
 70
     1
102
RTVSPropertyOp8
 70
     1
102
RTVSPropertyOp9
 70
     1
102
RTVSPropertyOp10
 70
     1
102
RTVSPropertyOp11
 70
     1
102
RTVSPropertyOp12
 70
     1
102
RTVSPropertyOp13
 70
     1
102
RTVSPropertyOp14
 70
     1
102
RTVSPropertyOp15
 70
     1
102
RTVSPropertyOp16
 70
     1
102
RTVSPropertyOp17
 70
     1
102
RTVSPropertyOp18
 70
     1
102
RTVSPropertyOp19
 70
     1
102
RTVSPropertyOp20
 70
     1
102
RTVSPropertyOp21
 70
     1
102
RTVSPropertyOp22
 70
     1
102
RTVSPropertyOp23
 70
     1
102
RTVSPropertyOp24
 70
     1
102
RTVSPropertyOp25
 70
     1
102
RTVSPropertyOp26
 70
     1
102
RTVSPropertyOp27
 70
     1
102
RTVSPropertyOp28
 70
     1
102
RTVSPropertyOp29
 70
     1
102
RTVSPropertyOp30
 70
     1
102
RTVSPropertyOp31
 70
     1
102
RTVSPropertyOp32
 70
     1
102
RTVSPropertyOp33
 70
     1
102
RTVSPropertyOp34
 70
     1
102
RTVSPropertyOp35
 70
     1
102
RTVSPropertyOp36
 70
     1
102
RTVSPropertyOp37
 70
     1
102
RTVSPropertyOp38
 70
     1
102
RTVSPropertyOp39
 70
     1
102
RTVSPropertyOp40
 70
     1
102
RTVSPropertyOp41
 70
     1
102
RTVSPropertyOp42
 70
     1
102
RTVSPropertyOp43
 70
     1
102
RTVSPropertyOp44
 70
     1
102
RTVSPropertyOp45
 70
     1
102
RTVSPropertyOp46
 70
     1
102
RTVSPropertyOp47
 70
     1
102
RTVSPropertyOp48
 70
     1
102
RTVSPropertyOp49
 70
     1
102
RTVSPropertyOp50
 70
     1
102
RTVSPropertyOp51
 70
     0
102
RTVSPropertyOp52
 70
     0
102
RTVSPropertyOp53
 70
     1
102
RTVSPropertyOp54
 70
     1
102
RTVSPropertyOp55
 70
     1
102
RTVSPropertyOp56
 70
     1
102
RTVSPropertyOp57
 70
     1
102
RTVSPost2010Prop28
280
     0
102
RTVSPost2010PropOp28
 70
     1
102
RTVSPost2010Prop29
280
     1
102
RTVSPost2010PropOp29
 70
     1
102
RTVSPost2010Prop30
280
     1
102
RTVSPost2010PropOp30
 70
     1
102
RTVSPost2010Prop31
280
     0
102
RTVSPost2010PropOp31
 70
     1
102
RTVSPost2010Prop32
280
     0
102
RTVSPost2010PropOp32
 70
     1
102
RTVSPost2010Prop33
280
     0
102
RTVSPost2010PropOp33
 70
     1
102
RTVSPost2010Prop34
280
     0
102
RTVSPost2010PropOp34
 70
     1
102
RTVSPost2010Prop35
280
     0
102
RTVSPost2010PropOp35
 70
     1
102
RTVSPost2010Prop36
280
     0
102
RTVSPost2010PropOp36
 70
     1
102
RTVSPost2010Prop37
 90
       50
102
RTVSPost2010PropOp37
 70
     1
102
RTVSPost2010Prop38
140
0.0
102
RTVSPost2010PropOp38
 70
     1
102
RTVSPost2010Prop39
140
1.0
102
RTVSPost2010PropOp39
 70
     1
102
RTVSPost2010Prop40
 90
        0
102
RTVSPost2010PropOp40
 70
     1
102
RTVSPost2010Prop41ColorIndex
 90
       18
102
RTVSPost2010Prop41ColorRGB
 90
        0
102
RTVSPost2010PropOp41
 70
     1
102
RTVSPost2010Prop42
 90
       50
102
RTVSPost2010PropOp42
 70
     1
102
RTVSPost2010Prop43
 90
        3
102
RTVSPost2010PropOp43
 70
     1
102
RTVSPost2010Prop44ColorIndex
 90
        5
102
RTVSPost2010Prop44ColorRGB
 90
      255
102
RTVSPost2010PropOp44
 70
     1
102
RTVSPost2010Prop45
280
     0
102
RTVSPost2010PropOp45
 70
     1
102
RTVSPost2010Prop46
 90
       50
102
RTVSPost2010PropOp46
 70
     1
102
RTVSPost2010Prop47
 90
       50
102
RTVSPost2010PropOp47
 70
     1
102
RTVSPost2010Prop48
 90
       50
102
RTVSPost2010PropOp48
 70
     1
102
RTVSPost2010Prop49
280
     0
102
RTVSPost2010PropOp49
 70
     1
102
RTVSPost2010Prop50
 90
       50
102
RTVSPost2010PropOp50
 70
     1
102
RTVSPost2010Prop51ColorIndex
 90
      256
102
RTVSPost2010Prop51ColorRGB
 90
-16777216
102
RTVSPost2010PropOp51
 70
     0
102
RTVSPost2010Prop52
140
1.0
102
RTVSPost2010PropOp52
 70
     0
102
RTVSPost2010Prop53
 90
        2
102
RTVSPost2010PropOp53
 70
     1
102
RTVSPost2010Prop54
  1
strokes_ogs.tif
102
RTVSPost2010PropOp54
 70
     1
102
RTVSPost2010Prop55
280
     0
102
RTVSPost2010PropOp55
 70
     1
102
RTVSPost2010Prop56
140
1.0
102
RTVSPost2010PropOp56
 70
     1
102
RTVSPost2010Prop57
140
1.0
102
RTVSPost2010PropOp57
 70
     1
  0
XRECORD
  5
216
102
{ACAD_REACTORS
330
215
102
}
330
215
100
AcDbXrecord
280
     1
102
RTVSPropertyOp0
 70
     1
102
RTVSPropertyOp1
 70
     1
102
RTVSPropertyOp2
 70
     1
102
RTVSPropertyOp3
 70
     1
102
RTVSPropertyOp4
 70
     1
102
RTVSPropertyOp5
 70
     1
102
RTVSPropertyOp6
 70
     1
102
RTVSPropertyOp7
 70
     1
102
RTVSPropertyOp8
 70
     1
102
RTVSPropertyOp9
 70
     1
102
RTVSPropertyOp10
 70
     1
102
RTVSPropertyOp11
 70
     1
102
RTVSPropertyOp12
 70
     1
102
RTVSPropertyOp13
 70
     1
102
RTVSPropertyOp14
 70
     1
102
RTVSPropertyOp15
 70
     1
102
RTVSPropertyOp16
 70
     1
102
RTVSPropertyOp17
 70
     1
102
RTVSPropertyOp18
 70
     1
102
RTVSPropertyOp19
 70
     1
102
RTVSPropertyOp20
 70
     1
102
RTVSPropertyOp21
 70
     1
102
RTVSPropertyOp22
 70
     1
102
RTVSPropertyOp23
 70
     1
102
RTVSPropertyOp24
 70
     1
102
RTVSPropertyOp25
 70
     1
102
RTVSPropertyOp26
 70
     1
102
RTVSPropertyOp27
 70
     1
102
RTVSPropertyOp28
 70
     1
102
RTVSPropertyOp29
 70
     1
102
RTVSPropertyOp30
 70
     1
102
RTVSPropertyOp31
 70
     1
102
RTVSPropertyOp32
 70
     1
102
RTVSPropertyOp33
 70
     1
102
RTVSPropertyOp34
 70
     1
102
RTVSPropertyOp35
 70
     1
102
RTVSPropertyOp36
 70
     1
102
RTVSPropertyOp37
 70
     1
102
RTVSPropertyOp38
 70
     1
102
RTVSPropertyOp39
 70
     1
102
RTVSPropertyOp40
 70
     1
102
RTVSPropertyOp41
 70
     1
102
RTVSPropertyOp42
 70
     1
102
RTVSPropertyOp43
 70
     1
102
RTVSPropertyOp44
 70
     1
102
RTVSPropertyOp45
 70
     1
102
RTVSPropertyOp46
 70
     1
102
RTVSPropertyOp47
 70
     1
102
RTVSPropertyOp48
 70
     1
102
RTVSPropertyOp49
 70
     1
102
RTVSPropertyOp50
 70
     1
102
RTVSPropertyOp51
 70
     0
102
RTVSPropertyOp52
 70
     0
102
RTVSPropertyOp53
 70
     1
102
RTVSPropertyOp54
 70
     1
102
RTVSPropertyOp55
 70
     1
102
RTVSPropertyOp56
 70
     1
102
RTVSPropertyOp57
 70
     1
102
RTVSPost2010Prop28
280
     0
102
RTVSPost2010PropOp28
 70
     1
102
RTVSPost2010Prop29
280
     1
102
RTVSPost2010PropOp29
 70
     1
102
RTVSPost2010Prop30
280
     1
102
RTVSPost2010PropOp30
 70
     1
102
RTVSPost2010Prop31
280
     0
102
RTVSPost2010PropOp31
 70
     1
102
RTVSPost2010Prop32
280
     0
102
RTVSPost2010PropOp32
 70
     1
102
RTVSPost2010Prop33
280
     0
102
RTVSPost2010PropOp33
 70
     1
102
RTVSPost2010Prop34
280
     0
102
RTVSPost2010PropOp34
 70
     1
102
RTVSPost2010Prop35
280
     0
102
RTVSPost2010PropOp35
 70
     1
102
RTVSPost2010Prop36
280
     0
102
RTVSPost2010PropOp36
 70
     1
102
RTVSPost2010Prop37
 90
       50
102
RTVSPost2010PropOp37
 70
     1
102
RTVSPost2010Prop38
140
0.0
102
RTVSPost2010PropOp38
 70
     1
102
RTVSPost2010Prop39
140
1.0
102
RTVSPost2010PropOp39
 70
     1
102
RTVSPost2010Prop40
 90
        0
102
RTVSPost2010PropOp40
 70
     1
102
RTVSPost2010Prop41ColorIndex
 90
       18
102
RTVSPost2010Prop41ColorRGB
 90
        0
102
RTVSPost2010PropOp41
 70
     1
102
RTVSPost2010Prop42
 90
       50
102
RTVSPost2010PropOp42
 70
     1
102
RTVSPost2010Prop43
 90
        3
102
RTVSPost2010PropOp43
 70
     1
102
RTVSPost2010Prop44ColorIndex
 90
        5
102
RTVSPost2010Prop44ColorRGB
 90
      255
102
RTVSPost2010PropOp44
 70
     1
102
RTVSPost2010Prop45
280
     0
102
RTVSPost2010PropOp45
 70
     1
102
RTVSPost2010Prop46
 90
       50
102
RTVSPost2010PropOp46
 70
     1
102
RTVSPost2010Prop47
 90
       50
102
RTVSPost2010PropOp47
 70
     1
102
RTVSPost2010Prop48
 90
       50
102
RTVSPost2010PropOp48
 70
     1
102
RTVSPost2010Prop49
280
     0
102
RTVSPost2010PropOp49
 70
     1
102
RTVSPost2010Prop50
 90
       50
102
RTVSPost2010PropOp50
 70
     1
102
RTVSPost2010Prop51ColorIndex
 90
      256
102
RTVSPost2010Prop51ColorRGB
 90
-16777216
102
RTVSPost2010PropOp51
 70
     0
102
RTVSPost2010Prop52
140
1.0
102
RTVSPost2010PropOp52
 70
     0
102
RTVSPost2010Prop53
 90
        2
102
RTVSPost2010PropOp53
 70
     1
102
RTVSPost2010Prop54
  1
strokes_ogs.tif
102
RTVSPost2010PropOp54
 70
     1
102
RTVSPost2010Prop55
280
     0
102
RTVSPost2010PropOp55
 70
     1
102
RTVSPost2010Prop56
140
1.0
102
RTVSPost2010PropOp56
 70
     1
102
RTVSPost2010Prop57
140
1.0
102
RTVSPost2010PropOp57
 70
     1
  0
XRECORD
  5
218
102
{ACAD_REACTORS
330
217
102
}
330
217
100
AcDbXrecord
280
     1
102
RTVSPropertyOp0
 70
     1
102
RTVSPropertyOp1
 70
     1
102
RTVSPropertyOp2
 70
     1
102
RTVSPropertyOp3
 70
     1
102
RTVSPropertyOp4
 70
     1
102
RTVSPropertyOp5
 70
     1
102
RTVSPropertyOp6
 70
     1
102
RTVSPropertyOp7
 70
     1
102
RTVSPropertyOp8
 70
     1
102
RTVSPropertyOp9
 70
     1
102
RTVSPropertyOp10
 70
     1
102
RTVSPropertyOp11
 70
     1
102
RTVSPropertyOp12
 70
     1
102
RTVSPropertyOp13
 70
     1
102
RTVSPropertyOp14
 70
     1
102
RTVSPropertyOp15
 70
     1
102
RTVSPropertyOp16
 70
     1
102
RTVSPropertyOp17
 70
     1
102
RTVSPropertyOp18
 70
     1
102
RTVSPropertyOp19
 70
     1
102
RTVSPropertyOp20
 70
     1
102
RTVSPropertyOp21
 70
     1
102
RTVSPropertyOp22
 70
     1
102
RTVSPropertyOp23
 70
     1
102
RTVSPropertyOp24
 70
     1
102
RTVSPropertyOp25
 70
     1
102
RTVSPropertyOp26
 70
     1
102
RTVSPropertyOp27
 70
     1
102
RTVSPropertyOp28
 70
     1
102
RTVSPropertyOp29
 70
     1
102
RTVSPropertyOp30
 70
     1
102
RTVSPropertyOp31
 70
     1
102
RTVSPropertyOp32
 70
     1
102
RTVSPropertyOp33
 70
     1
102
RTVSPropertyOp34
 70
     1
102
RTVSPropertyOp35
 70
     1
102
RTVSPropertyOp36
 70
     1
102
RTVSPropertyOp37
 70
     1
102
RTVSPropertyOp38
 70
     1
102
RTVSPropertyOp39
 70
     1
102
RTVSPropertyOp40
 70
     1
102
RTVSPropertyOp41
 70
     1
102
RTVSPropertyOp42
 70
     1
102
RTVSPropertyOp43
 70
     1
102
RTVSPropertyOp44
 70
     1
102
RTVSPropertyOp45
 70
     1
102
RTVSPropertyOp46
 70
     1
102
RTVSPropertyOp47
 70
     1
102
RTVSPropertyOp48
 70
     1
102
RTVSPropertyOp49
 70
     1
102
RTVSPropertyOp50
 70
     1
102
RTVSPropertyOp51
 70
     0
102
RTVSPropertyOp52
 70
     0
102
RTVSPropertyOp53
 70
     1
102
RTVSPropertyOp54
 70
     1
102
RTVSPropertyOp55
 70
     1
102
RTVSPropertyOp56
 70
     1
102
RTVSPropertyOp57
 70
     1
102
RTVSPost2010Prop28
280
     0
102
RTVSPost2010PropOp28
 70
     1
102
RTVSPost2010Prop29
280
     1
102
RTVSPost2010PropOp29
 70
     1
102
RTVSPost2010Prop30
280
     1
102
RTVSPost2010PropOp30
 70
     1
102
RTVSPost2010Prop31
280
     0
102
RTVSPost2010PropOp31
 70
     1
102
RTVSPost2010Prop32
280
     0
102
RTVSPost2010PropOp32
 70
     1
102
RTVSPost2010Prop33
280
     0
102
RTVSPost2010PropOp33
 70
     1
102
RTVSPost2010Prop34
280
     0
102
RTVSPost2010PropOp34
 70
     1
102
RTVSPost2010Prop35
280
     0
102
RTVSPost2010PropOp35
 70
     1
102
RTVSPost2010Prop36
280
     0
102
RTVSPost2010PropOp36
 70
     1
102
RTVSPost2010Prop37
 90
       50
102
RTVSPost2010PropOp37
 70
     1
102
RTVSPost2010Prop38
140
0.0
102
RTVSPost2010PropOp38
 70
     1
102
RTVSPost2010Prop39
140
1.0
102
RTVSPost2010PropOp39
 70
     1
102
RTVSPost2010Prop40
 90
        0
102
RTVSPost2010PropOp40
 70
     1
102
RTVSPost2010Prop41ColorIndex
 90
       18
102
RTVSPost2010Prop41ColorRGB
 90
        0
102
RTVSPost2010PropOp41
 70
     1
102
RTVSPost2010Prop42
 90
       50
102
RTVSPost2010PropOp42
 70
     1
102
RTVSPost2010Prop43
 90
        3
102
RTVSPost2010PropOp43
 70
     1
102
RTVSPost2010Prop44ColorIndex
 90
        5
102
RTVSPost2010Prop44ColorRGB
 90
      255
102
RTVSPost2010PropOp44
 70
     1
102
RTVSPost2010Prop45
280
     0
102
RTVSPost2010PropOp45
 70
     1
102
RTVSPost2010Prop46
 90
       50
102
RTVSPost2010PropOp46
 70
     1
102
RTVSPost2010Prop47
 90
       50
102
RTVSPost2010PropOp47
 70
     1
102
RTVSPost2010Prop48
 90
       50
102
RTVSPost2010PropOp48
 70
     1
102
RTVSPost2010Prop49
280
     0
102
RTVSPost2010PropOp49
 70
     1
102
RTVSPost2010Prop50
 90
       50
102
RTVSPost2010PropOp50
 70
     1
102
RTVSPost2010Prop51ColorIndex
 90
      256
102
RTVSPost2010Prop51ColorRGB
 90
-16777216
102
RTVSPost2010PropOp51
 70
     0
102
RTVSPost2010Prop52
140
1.0
102
RTVSPost2010PropOp52
 70
     0
102
RTVSPost2010Prop53
 90
        2
102
RTVSPost2010PropOp53
 70
     1
102
RTVSPost2010Prop54
  1
strokes_ogs.tif
102
RTVSPost2010PropOp54
 70
     1
102
RTVSPost2010Prop55
280
     0
102
RTVSPost2010PropOp55
 70
     1
102
RTVSPost2010Prop56
140
1.0
102
RTVSPost2010PropOp56
 70
     1
102
RTVSPost2010Prop57
140
1.0
102
RTVSPost2010PropOp57
 70
     1
  0
XRECORD
  5
208
102
{ACAD_REACTORS
330
207
102
}
330
207
100
AcDbXrecord
280
     1
102
RTVSPropertyOp0
 70
     1
102
RTVSPropertyOp1
 70
     1
102
RTVSPropertyOp2
 70
     1
102
RTVSPropertyOp3
 70
     1
102
RTVSPropertyOp4
 70
     1
102
RTVSPropertyOp5
 70
     1
102
RTVSPropertyOp6
 70
     1
102
RTVSPropertyOp7
 70
     1
102
RTVSPropertyOp8
 70
     1
102
RTVSPropertyOp9
 70
     1
102
RTVSPropertyOp10
 70
     1
102
RTVSPropertyOp11
 70
     1
102
RTVSPropertyOp12
 70
     1
102
RTVSPropertyOp13
 70
     1
102
RTVSPropertyOp14
 70
     1
102
RTVSPropertyOp15
 70
     1
102
RTVSPropertyOp16
 70
     1
102
RTVSPropertyOp17
 70
     1
102
RTVSPropertyOp18
 70
     1
102
RTVSPropertyOp19
 70
     1
102
RTVSPropertyOp20
 70
     1
102
RTVSPropertyOp21
 70
     1
102
RTVSPropertyOp22
 70
     1
102
RTVSPropertyOp23
 70
     1
102
RTVSPropertyOp24
 70
     1
102
RTVSPropertyOp25
 70
     1
102
RTVSPropertyOp26
 70
     1
102
RTVSPropertyOp27
 70
     1
102
RTVSPropertyOp28
 70
     1
102
RTVSPropertyOp29
 70
     1
102
RTVSPropertyOp30
 70
     1
102
RTVSPropertyOp31
 70
     1
102
RTVSPropertyOp32
 70
     1
102
RTVSPropertyOp33
 70
     1
102
RTVSPropertyOp34
 70
     1
102
RTVSPropertyOp35
 70
     1
102
RTVSPropertyOp36
 70
     1
102
RTVSPropertyOp37
 70
     1
102
RTVSPropertyOp38
 70
     1
102
RTVSPropertyOp39
 70
     1
102
RTVSPropertyOp40
 70
     1
102
RTVSPropertyOp41
 70
     1
102
RTVSPropertyOp42
 70
     1
102
RTVSPropertyOp43
 70
     1
102
RTVSPropertyOp44
 70
     1
102
RTVSPropertyOp45
 70
     1
102
RTVSPropertyOp46
 70
     1
102
RTVSPropertyOp47
 70
     1
102
RTVSPropertyOp48
 70
     1
102
RTVSPropertyOp49
 70
     1
102
RTVSPropertyOp50
 70
     1
102
RTVSPropertyOp51
 70
     0
102
RTVSPropertyOp52
 70
     0
102
RTVSPropertyOp53
 70
     1
102
RTVSPropertyOp54
 70
     1
102
RTVSPropertyOp55
 70
     1
102
RTVSPropertyOp56
 70
     1
102
RTVSPropertyOp57
 70
     1
102
RTVSPost2010Prop28
280
     0
102
RTVSPost2010PropOp28
 70
     1
102
RTVSPost2010Prop29
280
     1
102
RTVSPost2010PropOp29
 70
     1
102
RTVSPost2010Prop30
280
     1
102
RTVSPost2010PropOp30
 70
     1
102
RTVSPost2010Prop31
280
     0
102
RTVSPost2010PropOp31
 70
     1
102
RTVSPost2010Prop32
280
     0
102
RTVSPost2010PropOp32
 70
     1
102
RTVSPost2010Prop33
280
     0
102
RTVSPost2010PropOp33
 70
     1
102
RTVSPost2010Prop34
280
     0
102
RTVSPost2010PropOp34
 70
     1
102
RTVSPost2010Prop35
280
     0
102
RTVSPost2010PropOp35
 70
     1
102
RTVSPost2010Prop36
280
     0
102
RTVSPost2010PropOp36
 70
     1
102
RTVSPost2010Prop37
 90
       50
102
RTVSPost2010PropOp37
 70
     1
102
RTVSPost2010Prop38
140
0.0
102
RTVSPost2010PropOp38
 70
     1
102
RTVSPost2010Prop39
140
1.0
102
RTVSPost2010PropOp39
 70
     1
102
RTVSPost2010Prop40
 90
        0
102
RTVSPost2010PropOp40
 70
     1
102
RTVSPost2010Prop41ColorIndex
 90
       18
102
RTVSPost2010Prop41ColorRGB
 90
        0
102
RTVSPost2010PropOp41
 70
     1
102
RTVSPost2010Prop42
 90
       50
102
RTVSPost2010PropOp42
 70
     1
102
RTVSPost2010Prop43
 90
        3
102
RTVSPost2010PropOp43
 70
     1
102
RTVSPost2010Prop44ColorIndex
 90
        5
102
RTVSPost2010Prop44ColorRGB
 90
      255
102
RTVSPost2010PropOp44
 70
     1
102
RTVSPost2010Prop45
280
     0
102
RTVSPost2010PropOp45
 70
     1
102
RTVSPost2010Prop46
 90
       50
102
RTVSPost2010PropOp46
 70
     1
102
RTVSPost2010Prop47
 90
       50
102
RTVSPost2010PropOp47
 70
     1
102
RTVSPost2010Prop48
 90
       50
102
RTVSPost2010PropOp48
 70
     1
102
RTVSPost2010Prop49
280
     0
102
RTVSPost2010PropOp49
 70
     1
102
RTVSPost2010Prop50
 90
       50
102
RTVSPost2010PropOp50
 70
     1
102
RTVSPost2010Prop51ColorIndex
 90
      256
102
RTVSPost2010Prop51ColorRGB
 90
-16777216
102
RTVSPost2010PropOp51
 70
     0
102
RTVSPost2010Prop52
140
1.0
102
RTVSPost2010PropOp52
 70
     0
102
RTVSPost2010Prop53
 90
        2
102
RTVSPost2010PropOp53
 70
     1
102
RTVSPost2010Prop54
  1
strokes_ogs.tif
102
RTVSPost2010PropOp54
 70
     1
102
RTVSPost2010Prop55
280
     0
102
RTVSPost2010PropOp55
 70
     1
102
RTVSPost2010Prop56
140
1.0
102
RTVSPost2010PropOp56
 70
     1
102
RTVSPost2010Prop57
140
1.0
102
RTVSPost2010PropOp57
 70
     1
  0
XRECORD
  5
1FA
102
{ACAD_REACTORS
330
1F9
102
}
330
1F9
100
AcDbXrecord
280
     1
102
RTVSPropertyOp0
 70
     1
102
RTVSPropertyOp1
 70
     1
102
RTVSPropertyOp2
 70
     1
102
RTVSPropertyOp3
 70
     1
102
RTVSPropertyOp4
 70
     1
102
RTVSPropertyOp5
 70
     1
102
RTVSPropertyOp6
 70
     1
102
RTVSPropertyOp7
 70
     1
102
RTVSPropertyOp8
 70
     1
102
RTVSPropertyOp9
 70
     1
102
RTVSPropertyOp10
 70
     1
102
RTVSPropertyOp11
 70
     1
102
RTVSPropertyOp12
 70
     1
102
RTVSPropertyOp13
 70
     1
102
RTVSPropertyOp14
 70
     1
102
RTVSPropertyOp15
 70
     1
102
RTVSPropertyOp16
 70
     1
102
RTVSPropertyOp17
 70
     1
102
RTVSPropertyOp18
 70
     1
102
RTVSPropertyOp19
 70
     1
102
RTVSPropertyOp20
 70
     1
102
RTVSPropertyOp21
 70
     1
102
RTVSPropertyOp22
 70
     1
102
RTVSPropertyOp23
 70
     1
102
RTVSPropertyOp24
 70
     1
102
RTVSPropertyOp25
 70
     1
102
RTVSPropertyOp26
 70
     1
102
RTVSPropertyOp27
 70
     1
102
RTVSPropertyOp28
 70
     1
102
RTVSPropertyOp29
 70
     1
102
RTVSPropertyOp30
 70
     1
102
RTVSPropertyOp31
 70
     1
102
RTVSPropertyOp32
 70
     1
102
RTVSPropertyOp33
 70
     1
102
RTVSPropertyOp34
 70
     1
102
RTVSPropertyOp35
 70
     1
102
RTVSPropertyOp36
 70
     1
102
RTVSPropertyOp37
 70
     1
102
RTVSPropertyOp38
 70
     1
102
RTVSPropertyOp39
 70
     1
102
RTVSPropertyOp40
 70
     1
102
RTVSPropertyOp41
 70
     1
102
RTVSPropertyOp42
 70
     1
102
RTVSPropertyOp43
 70
     1
102
RTVSPropertyOp44
 70
     1
102
RTVSPropertyOp45
 70
     1
102
RTVSPropertyOp46
 70
     1
102
RTVSPropertyOp47
 70
     1
102
RTVSPropertyOp48
 70
     1
102
RTVSPropertyOp49
 70
     1
102
RTVSPropertyOp50
 70
     1
102
RTVSPropertyOp51
 70
     0
102
RTVSPropertyOp52
 70
     0
102
RTVSPropertyOp53
 70
     1
102
RTVSPropertyOp54
 70
     1
102
RTVSPropertyOp55
 70
     1
102
RTVSPropertyOp56
 70
     1
102
RTVSPropertyOp57
 70
     1
102
RTVSPost2010Prop28
280
     0
102
RTVSPost2010PropOp28
 70
     1
102
RTVSPost2010Prop29
280
     1
102
RTVSPost2010PropOp29
 70
     1
102
RTVSPost2010Prop30
280
     1
102
RTVSPost2010PropOp30
 70
     1
102
RTVSPost2010Prop31
280
     0
102
RTVSPost2010PropOp31
 70
     1
102
RTVSPost2010Prop32
280
     0
102
RTVSPost2010PropOp32
 70
     1
102
RTVSPost2010Prop33
280
     0
102
RTVSPost2010PropOp33
 70
     1
102
RTVSPost2010Prop34
280
     0
102
RTVSPost2010PropOp34
 70
     1
102
RTVSPost2010Prop35
280
     0
102
RTVSPost2010PropOp35
 70
     1
102
RTVSPost2010Prop36
280
     0
102
RTVSPost2010PropOp36
 70
     1
102
RTVSPost2010Prop37
 90
       50
102
RTVSPost2010PropOp37
 70
     1
102
RTVSPost2010Prop38
140
0.0
102
RTVSPost2010PropOp38
 70
     1
102
RTVSPost2010Prop39
140
1.0
102
RTVSPost2010PropOp39
 70
     1
102
RTVSPost2010Prop40
 90
        0
102
RTVSPost2010PropOp40
 70
     1
102
RTVSPost2010Prop41ColorIndex
 90
       18
102
RTVSPost2010Prop41ColorRGB
 90
        0
102
RTVSPost2010PropOp41
 70
     1
102
RTVSPost2010Prop42
 90
       50
102
RTVSPost2010PropOp42
 70
     1
102
RTVSPost2010Prop43
 90
        3
102
RTVSPost2010PropOp43
 70
     1
102
RTVSPost2010Prop44ColorIndex
 90
        5
102
RTVSPost2010Prop44ColorRGB
 90
      255
102
RTVSPost2010PropOp44
 70
     1
102
RTVSPost2010Prop45
280
     0
102
RTVSPost2010PropOp45
 70
     1
102
RTVSPost2010Prop46
 90
       50
102
RTVSPost2010PropOp46
 70
     1
102
RTVSPost2010Prop47
 90
       50
102
RTVSPost2010PropOp47
 70
     1
102
RTVSPost2010Prop48
 90
       50
102
RTVSPost2010PropOp48
 70
     1
102
RTVSPost2010Prop49
280
     0
102
RTVSPost2010PropOp49
 70
     1
102
RTVSPost2010Prop50
 90
       50
102
RTVSPost2010PropOp50
 70
     1
102
RTVSPost2010Prop51ColorIndex
 90
      256
102
RTVSPost2010Prop51ColorRGB
 90
-16777216
102
RTVSPost2010PropOp51
 70
     0
102
RTVSPost2010Prop52
140
1.0
102
RTVSPost2010PropOp52
 70
     0
102
RTVSPost2010Prop53
 90
        2
102
RTVSPost2010PropOp53
 70
     1
102
RTVSPost2010Prop54
  1
strokes_ogs.tif
102
RTVSPost2010PropOp54
 70
     1
102
RTVSPost2010Prop55
280
     0
102
RTVSPost2010PropOp55
 70
     1
102
RTVSPost2010Prop56
140
1.0
102
RTVSPost2010PropOp56
 70
     1
102
RTVSPost2010Prop57
140
1.0
102
RTVSPost2010PropOp57
 70
     1
  0
XRECORD
  5
21A
102
{ACAD_REACTORS
330
219
102
}
330
219
100
AcDbXrecord
280
     1
102
RTVSPropertyOp0
 70
     1
102
RTVSPropertyOp1
 70
     1
102
RTVSPropertyOp2
 70
     1
102
RTVSPropertyOp3
 70
     1
102
RTVSPropertyOp4
 70
     1
102
RTVSPropertyOp5
 70
     1
102
RTVSPropertyOp6
 70
     1
102
RTVSPropertyOp7
 70
     1
102
RTVSPropertyOp8
 70
     1
102
RTVSPropertyOp9
 70
     1
102
RTVSPropertyOp10
 70
     1
102
RTVSPropertyOp11
 70
     1
102
RTVSPropertyOp12
 70
     1
102
RTVSPropertyOp13
 70
     1
102
RTVSPropertyOp14
 70
     1
102
RTVSPropertyOp15
 70
     1
102
RTVSPropertyOp16
 70
     1
102
RTVSPropertyOp17
 70
     1
102
RTVSPropertyOp18
 70
     1
102
RTVSPropertyOp19
 70
     1
102
RTVSPropertyOp20
 70
     1
102
RTVSPropertyOp21
 70
     1
102
RTVSPropertyOp22
 70
     1
102
RTVSPropertyOp23
 70
     1
102
RTVSPropertyOp24
 70
     1
102
RTVSPropertyOp25
 70
     1
102
RTVSPropertyOp26
 70
     1
102
RTVSPropertyOp27
 70
     1
102
RTVSPropertyOp28
 70
     1
102
RTVSPropertyOp29
 70
     1
102
RTVSPropertyOp30
 70
     1
102
RTVSPropertyOp31
 70
     1
102
RTVSPropertyOp32
 70
     1
102
RTVSPropertyOp33
 70
     1
102
RTVSPropertyOp34
 70
     1
102
RTVSPropertyOp35
 70
     1
102
RTVSPropertyOp36
 70
     1
102
RTVSPropertyOp37
 70
     1
102
RTVSPropertyOp38
 70
     1
102
RTVSPropertyOp39
 70
     1
102
RTVSPropertyOp40
 70
     1
102
RTVSPropertyOp41
 70
     1
102
RTVSPropertyOp42
 70
     1
102
RTVSPropertyOp43
 70
     1
102
RTVSPropertyOp44
 70
     1
102
RTVSPropertyOp45
 70
     1
102
RTVSPropertyOp46
 70
     1
102
RTVSPropertyOp47
 70
     1
102
RTVSPropertyOp48
 70
     1
102
RTVSPropertyOp49
 70
     1
102
RTVSPropertyOp50
 70
     1
102
RTVSPropertyOp51
 70
     0
102
RTVSPropertyOp52
 70
     0
102
RTVSPropertyOp53
 70
     1
102
RTVSPropertyOp54
 70
     1
102
RTVSPropertyOp55
 70
     1
102
RTVSPropertyOp56
 70
     1
102
RTVSPropertyOp57
 70
     1
102
RTVSPost2010Prop28
280
     0
102
RTVSPost2010PropOp28
 70
     1
102
RTVSPost2010Prop29
280
     1
102
RTVSPost2010PropOp29
 70
     1
102
RTVSPost2010Prop30
280
     1
102
RTVSPost2010PropOp30
 70
     1
102
RTVSPost2010Prop31
280
     0
102
RTVSPost2010PropOp31
 70
     1
102
RTVSPost2010Prop32
280
     0
102
RTVSPost2010PropOp32
 70
     1
102
RTVSPost2010Prop33
280
     0
102
RTVSPost2010PropOp33
 70
     1
102
RTVSPost2010Prop34
280
     0
102
RTVSPost2010PropOp34
 70
     1
102
RTVSPost2010Prop35
280
     0
102
RTVSPost2010PropOp35
 70
     1
102
RTVSPost2010Prop36
280
     0
102
RTVSPost2010PropOp36
 70
     1
102
RTVSPost2010Prop37
 90
       50
102
RTVSPost2010PropOp37
 70
     1
102
RTVSPost2010Prop38
140
0.0
102
RTVSPost2010PropOp38
 70
     1
102
RTVSPost2010Prop39
140
1.0
102
RTVSPost2010PropOp39
 70
     1
102
RTVSPost2010Prop40
 90
        0
102
RTVSPost2010PropOp40
 70
     1
102
RTVSPost2010Prop41ColorIndex
 90
       18
102
RTVSPost2010Prop41ColorRGB
 90
        0
102
RTVSPost2010PropOp41
 70
     1
102
RTVSPost2010Prop42
 90
       50
102
RTVSPost2010PropOp42
 70
     1
102
RTVSPost2010Prop43
 90
        3
102
RTVSPost2010PropOp43
 70
     1
102
RTVSPost2010Prop44ColorIndex
 90
        5
102
RTVSPost2010Prop44ColorRGB
 90
      255
102
RTVSPost2010PropOp44
 70
     1
102
RTVSPost2010Prop45
280
     0
102
RTVSPost2010PropOp45
 70
     1
102
RTVSPost2010Prop46
 90
       50
102
RTVSPost2010PropOp46
 70
     1
102
RTVSPost2010Prop47
 90
       50
102
RTVSPost2010PropOp47
 70
     1
102
RTVSPost2010Prop48
 90
       50
102
RTVSPost2010PropOp48
 70
     1
102
RTVSPost2010Prop49
280
     0
102
RTVSPost2010PropOp49
 70
     1
102
RTVSPost2010Prop50
 90
       50
102
RTVSPost2010PropOp50
 70
     1
102
RTVSPost2010Prop51ColorIndex
 90
      256
102
RTVSPost2010Prop51ColorRGB
 90
-16777216
102
RTVSPost2010PropOp51
 70
     0
102
RTVSPost2010Prop52
140
1.0
102
RTVSPost2010PropOp52
 70
     0
102
RTVSPost2010Prop53
 90
        2
102
RTVSPost2010PropOp53
 70
     1
102
RTVSPost2010Prop54
  1
strokes_ogs.tif
102
RTVSPost2010PropOp54
 70
     1
102
RTVSPost2010Prop55
280
     0
102
RTVSPost2010PropOp55
 70
     1
102
RTVSPost2010Prop56
140
1.0
102
RTVSPost2010PropOp56
 70
     1
102
RTVSPost2010Prop57
140
1.0
102
RTVSPost2010PropOp57
 70
     1
  0
ENDSEC
  0
EOF
